<?xml version="1.0" encoding="UTF-8"?>
<svg xmlns="http://www.w3.org/2000/svg" xmlns:xlink="http://www.w3.org/1999/xlink" version="1.2" >
<font id="Bely Regular">
<font-face  font-family="Bely" units-per-em="1000" ascent="1042" descent="-273" font-style="normal" font-weight="400" font-stretch="normal" cap-height="650" x-height="410" underline-position="-100" underline-thickness="50" />
<missing-glyph  horiz-adv-x="200" d="" />
<glyph glyph-name="NULL" d="" />
<glyph glyph-name="CR" unicode="&#xd;" horiz-adv-x="250" d="" />
<glyph glyph-name="space" unicode="&#x20;" horiz-adv-x="220" d="" />
<glyph glyph-name="exclam" unicode="&#x21;" horiz-adv-x="238" d="M127 182 L160 650 L60 650 L93 182 L127 182 Z M119 -15 C151 -15 178 11 178 43 C178 75 151 102 119 102 C87 102 61 75 61 43 C61 11 87 -15 119 -15 L119 -15 Z " />
<glyph glyph-name="quotedbl" unicode="&#x22;" horiz-adv-x="240" d="M75 505 L95 717 L15 717 L35 505 L75 505 Z M205 505 L225 717 L145 717 L165 505 L205 505 Z " />
<glyph glyph-name="numbersign" unicode="&#x23;" horiz-adv-x="553" d="M528 388 L418 388 L466 543 L411 543 L363 388 L246 388 L294 543 L239 543 L191 388 L89 388 L74 338 L176 338 L142 228 L40 228 L25 178 L126 178 L71 0 L126 0 L181 178 L298 178 L243 0 L298 0 L353 178 L462 178 L478 228 L369 228 L403 338 L511 338 L528 388 Z M197 228 L231 338 L348 338 L314 228 L197 228 Z " />
<glyph glyph-name="dollar" unicode="&#x24;" horiz-adv-x="363" d="M340 125 C340 200 293 234 210 276 L210 448 C236 441 258 425 277 398 L310 342 L317 342 L317 463 C289 478 245 489 210 490 L210 537 L164 537 L164 487 C78 477 33 407 38 360 C38 305 65 266 164 217 L164 29 C130 33 101 51 77 84 L41 147 L34 147 L34 24 C66 7 121 -9 164 -10 L164 -70 L210 -70 L210 -8 C290 3 340 50 340 125 L340 125 Z M101 382 C101 421 125 446 164 451 L164 300 C113 329 101 355 101 382 L101 382 Z M210 193 C266 160 279 132 279 103 C279 63 253 36 210 29 L210 193 Z " />
<glyph glyph-name="percent" unicode="&#x25;" horiz-adv-x="566" d="M153 266 C198 262 267 299 265 377 C265 446 220 490 153 490 C109 494 38 457 40 377 C40 308 84 266 153 266 L153 266 Z M116 0 L504 480 L448 480 L60 0 L116 0 Z M153 293 C118 293 99 325 99 378 C99 430 118 462 153 462 C188 462 206 429 206 377 C206 325 188 293 153 293 L153 293 Z M413 -10 C457 -14 528 24 526 101 C526 170 481 214 414 214 C338 216 297 150 301 101 C301 32 345 -10 413 -10 L413 -10 Z M414 18 C378 18 360 49 360 102 C360 154 380 187 413 187 C448 187 467 153 467 101 C467 49 449 18 414 18 L414 18 Z " />
<glyph glyph-name="ampersand" unicode="&#x26;" horiz-adv-x="648" d="M481 121 C502 164 516 224 516 279 L606 329 L606 339 L389 339 L389 329 L474 279 C474 234 466 193 450 157 L265 376 C350 401 401 459 401 530 C401 609 342 665 257 665 C164 665 100 607 100 519 C100 476 115 431 175 362 C90 335 32 270 32 183 C32 122 57 63 106 29 C154 -6 205 -15 250 -15 C327 -15 392 12 436 57 L485 0 L621 0 L621 45 L545 45 L481 121 Z M248 625 C297 625 329 582 329 518 C329 465 299 416 251 392 L239 407 C236 411 207 443 191 467 C175 490 168 513 168 536 C168 591 200 625 248 625 L248 625 Z M268 33 C148 33 113 136 113 194 C113 266 141 319 189 346 L217 314 L407 92 C370 53 323 33 268 33 L268 33 Z " />
<glyph glyph-name="quotesingle" unicode="&#x27;" horiz-adv-x="110" d="M75 505 L95 717 L15 717 L35 505 L75 505 Z " />
<glyph glyph-name="parenleft" unicode="&#x28;" horiz-adv-x="292" d="M272 -204 C136 -60 112 137 113 236 C113 397 160 556 272 672 L236 698 C69 550 30 343 30 234 C30 58 118 -124 236 -230 L272 -204 Z " />
<glyph glyph-name="parenright" unicode="&#x29;" horiz-adv-x="292" d="M20 672 C156 528 180 331 179 232 C179 71 132 -88 20 -204 L56 -230 C223 -82 262 125 262 234 C262 410 174 592 56 698 L20 672 Z " />
<glyph glyph-name="asterisk" unicode="&#x2a;" horiz-adv-x="332" d="M269 670 L179 602 L193 714 L136 714 L150 602 L60 670 L32 621 L135 577 L32 533 L60 484 L150 552 L136 440 L193 440 L179 552 L269 484 L297 533 L194 577 L297 621 L269 670 Z " />
<glyph glyph-name="plus" unicode="&#x2b;" horiz-adv-x="560" d="M308 233 L308 405 L253 405 L253 233 L80 233 L80 181 L253 181 L253 5 L308 5 L308 181 L480 181 L480 233 L308 233 Z " />
<glyph glyph-name="comma" unicode="&#x2c;" horiz-adv-x="191" d="M97 102 C65 102 40 75 40 43 C40 11 65 -15 97 -15 C97 -60 73 -96 26 -121 L39 -145 C102 -123 160 -48 159 26 C159 69 134 102 97 102 L97 102 Z " />
<glyph glyph-name="hyphen" unicode="&#x2d;" horiz-adv-x="325" d="M275 174 L275 239 L50 239 L50 174 L275 174 Z " />
<glyph glyph-name="period" unicode="&#x2e;" horiz-adv-x="197" d="M98 -15 C130 -15 157 11 157 43 C157 75 130 102 98 102 C66 102 40 75 40 43 C40 11 66 -15 98 -15 L98 -15 Z " />
<glyph glyph-name="slash" unicode="&#x2f;" horiz-adv-x="410" d="M65 -194 L385 719 L330 719 L10 -194 L65 -194 Z " />
<glyph glyph-name="zero" unicode="0" horiz-adv-x="564" d="M282 -15 C412 -15 509 80 509 239 C509 399 414 490 283 490 C152 490 55 397 55 239 C55 79 149 -15 282 -15 L282 -15 Z M283 25 C197 25 139 94 139 240 C139 368 190 450 282 450 C367 450 425 382 425 239 C425 76 351 25 283 25 L283 25 Z " />
<glyph glyph-name="one" unicode="1" horiz-adv-x="417" d="M382 0 L382 45 L266 45 L261 50 L261 480 L75 480 L75 435 L181 435 L186 430 L186 50 L181 45 L75 45 L75 0 L382 0 Z " />
<glyph glyph-name="two" unicode="2" horiz-adv-x="435" d="M352 68 L347 63 L129 63 L173 99 C226 142 264 174 287 197 C334 241 368 294 368 355 C372 449 268 494 210 490 C157 490 100 469 64 448 L64 311 L67 311 L107 378 C136 426 169 450 205 450 C244 454 296 415 294 354 C294 333 289 312 280 291 C271 270 257 248 240 226 C222 203 185 165 128 111 L47 33 L47 0 L397 0 L397 128 L352 128 L352 68 Z " />
<glyph glyph-name="three" unicode="3" horiz-adv-x="437" d="M278 214 C338 238 376 289 376 353 C376 432 312 490 216 490 C167 490 118 476 71 448 L71 311 L74 311 L100 355 C125 396 145 423 162 434 C179 445 196 450 214 450 C266 450 302 409 302 345 C303 264 228 219 166 223 L133 223 L133 178 L184 178 C291 178 326 122 326 54 C326 -29 283 -86 208 -86 C166 -86 130 -61 101 -11 L62 54 L59 54 L59 -83 C99 -107 152 -125 203 -125 C316 -125 401 -52 401 67 C405 117 362 198 278 214 L278 214 Z " />
<glyph glyph-name="four" unicode="4" horiz-adv-x="515" d="M493 95 L367 95 L367 480 L327 480 L33 64 L33 40 L301 40 L301 -60 L296 -65 L211 -65 L211 -110 L442 -110 L442 -65 L372 -65 L367 -60 L367 40 L478 40 L493 95 Z M301 372 L301 95 L103 95 L301 372 Z " />
<glyph glyph-name="five" unicode="5" horiz-adv-x="429" d="M223 263 C182 263 142 252 104 230 L119 410 L308 410 L369 331 L372 331 L372 480 L77 480 L56 193 L73 182 C117 201 157 211 194 211 C300 204 323 140 327 66 C327 -44 268 -86 212 -86 C156 -86 122 -64 86 -7 L49 52 L44 52 L44 -89 C92 -110 154 -125 203 -125 C352 -125 404 -5 404 82 C404 212 307 263 223 263 L223 263 Z " />
<glyph glyph-name="six" unicode="6" horiz-adv-x="494" d="M269 371 C228 371 187 358 146 333 C176 467 300 579 412 617 L400 650 C297 614 207 553 155 489 C75 391 55 295 55 224 C55 135 86 71 119 39 C151 6 193 -15 249 -15 C359 -15 439 73 439 194 C439 305 361 371 269 371 L269 371 Z M252 25 C173 20 130 123 133 228 C133 249 135 272 138 297 C173 311 204 318 231 318 C318 318 362 259 362 170 C362 128 351 93 329 66 C307 39 281 25 252 25 L252 25 Z " />
<glyph glyph-name="seven" unicode="7" horiz-adv-x="447" d="M43 310 L46 310 L107 413 L358 413 L117 -85 L190 -120 L429 477 L429 480 L43 480 L43 310 Z " />
<glyph glyph-name="eight" unicode="8" horiz-adv-x="497" d="M303 369 C383 408 423 461 423 526 C423 605 361 665 257 665 C170 670 82 591 87 503 C87 446 124 389 193 345 C105 318 47 247 47 158 C47 53 126 -15 247 -15 C307 -15 356 3 394 40 C431 76 450 122 450 178 C450 241 408 301 323 356 L303 369 Z M157 531 C157 584 195 625 254 625 C296 628 352 592 350 525 C350 470 326 428 279 385 L248 405 C185 446 157 480 157 531 L157 531 Z M251 25 C219 25 179 38 155 71 C131 103 124 141 124 177 C124 241 156 296 219 329 L271 296 C339 253 372 207 372 150 C374 68 297 20 251 25 L251 25 Z " />
<glyph glyph-name="nine" unicode="9" horiz-adv-x="515" d="M256 490 C137 490 55 389 55 277 C51 175 128 90 222 95 C267 95 311 106 352 129 C330 63 259 -34 93 -93 L105 -125 C316 -79 460 72 460 254 C461 409 367 495 256 490 L256 490 Z M262 149 C178 145 132 213 135 299 C135 339 149 386 175 414 C201 442 228 450 253 450 C334 450 372 363 372 259 C372 226 369 195 363 166 C334 157 291 149 262 149 L262 149 Z " />
<glyph glyph-name="colon" unicode="&#x3a;" horiz-adv-x="197" d="M98 303 C130 303 157 329 157 361 C157 393 130 420 98 420 C66 420 40 393 40 361 C40 329 66 303 98 303 L98 303 Z M98 -15 C130 -15 157 11 157 43 C157 75 130 102 98 102 C66 102 40 75 40 43 C40 11 66 -15 98 -15 L98 -15 Z " />
<glyph glyph-name="semicolon" unicode="&#x3b;" horiz-adv-x="191" d="M100 303 C132 303 159 329 159 361 C159 393 132 420 100 420 C68 420 42 393 42 361 C42 329 68 303 100 303 L100 303 Z M97 102 C65 102 40 75 40 43 C40 11 65 -15 97 -15 C97 -60 73 -96 26 -121 L39 -145 C102 -123 160 -48 159 26 C159 69 134 102 97 102 L97 102 Z " />
<glyph glyph-name="less" unicode="&#x3c;" horiz-adv-x="560" d="M115 235 L115 181 L445 -10 L445 53 L176 208 L445 363 L445 426 L115 235 Z " />
<glyph glyph-name="equal" unicode="&#x3d;" horiz-adv-x="560" d="M490 271 L490 323 L70 323 L70 271 L490 271 Z M490 88 L490 140 L70 140 L70 88 L490 88 Z " />
<glyph glyph-name="greater" unicode="&#x3e;" horiz-adv-x="560" d="M110 363 L379 208 L110 53 L110 -10 L440 181 L440 235 L110 426 L110 363 Z " />
<glyph glyph-name="question" unicode="&#x3f;" horiz-adv-x="469" d="M233 665 C149 665 77 628 38 576 L99 517 C132 588 172 624 228 624 C295 624 337 567 337 494 C337 407 274 349 178 321 L191 182 L226 182 L240 306 C355 342 419 407 419 499 C424 589 344 670 233 665 L233 665 Z M213 102 C181 102 155 75 155 43 C155 11 181 -15 213 -15 C245 -15 272 11 272 43 C272 75 245 102 213 102 L213 102 Z " />
<glyph glyph-name="at" unicode="&#x40;" horiz-adv-x="772" d="M526 24 C651 24 752 157 752 282 C752 454 619 565 452 565 C397 565 327 554 247 507 C207 483 171 450 139 407 C74 322 50 225 50 148 C50 -53 187 -164 365 -164 C445 -164 538 -133 601 -82 L574 -51 C522 -92 451 -118 383 -118 C219 -118 129 -6 129 153 C129 361 264 519 448 519 C597 519 698 412 698 283 C698 163 629 66 549 66 C522 66 509 79 509 106 C509 120 510 134 513 147 L556 383 L552 383 L506 367 C487 378 465 383 442 383 C343 383 258 268 258 136 C258 71 290 33 334 33 C371 33 416 61 449 100 L449 94 C449 50 477 24 526 24 L526 24 Z M366 80 C335 80 320 107 320 150 C321 253 374 360 433 354 C454 354 472 345 487 328 L451 119 C419 93 391 80 366 80 L366 80 Z " />
<glyph glyph-name="A" unicode="A" horiz-adv-x="671" d="M583 50 L364 655 L326 655 L99 50 L94 45 L25 45 L25 0 L233 0 L233 45 L159 45 L154 50 L218 228 L437 228 L498 50 L493 45 L445 45 L445 0 L646 0 L646 45 L588 45 L583 50 Z M329 539 L331 539 L422 273 L234 273 L329 539 Z " />
<glyph glyph-name="B" unicode="B" horiz-adv-x="606" d="M389 354 C475 382 520 457 516 506 C516 598 439 650 298 650 L55 650 L55 640 L140 590 L140 50 L135 45 L60 45 L60 0 L324 0 C454 0 556 62 556 189 C556 270 494 333 389 354 L389 354 Z M298 605 C381 605 432 565 432 501 C432 410 372 365 273 365 L220 365 L220 605 L298 605 L298 605 Z M220 45 L220 320 L312 320 C415 320 472 272 472 189 C472 92 408 45 304 45 L220 45 Z " />
<glyph glyph-name="C" unicode="C" horiz-adv-x="643" d="M374 -15 C453 -15 533 6 578 35 L578 210 L573 210 L520 85 C481 52 432 35 373 35 C244 35 140 140 140 328 C140 493 230 615 369 615 C425 615 472 596 510 558 L562 463 L567 463 L567 630 C516 653 457 665 389 665 C209 665 50 540 50 319 C50 116 190 -15 374 -15 L374 -15 Z " />
<glyph glyph-name="D" unicode="D" horiz-adv-x="715" d="M292 0 C535 0 665 123 665 344 C665 548 543 650 299 650 L55 650 L55 640 L140 590 L140 50 L135 45 L60 45 L60 0 L292 0 Z M220 605 L280 605 C480 605 580 515 580 335 C580 142 477 45 289 45 L220 45 L220 605 Z " />
<glyph glyph-name="E" unicode="E" horiz-adv-x="580" d="M447 45 L220 45 L220 322 L385 322 L390 317 L390 242 L435 242 L435 447 L390 447 L390 372 L385 367 L220 367 L220 605 L436 605 L502 485 L507 485 L507 650 L55 650 L55 640 L140 590 L140 50 L135 45 L60 45 L60 0 L525 0 L535 165 L530 165 L447 45 Z " />
<glyph glyph-name="F" unicode="F" horiz-adv-x="554" d="M55 640 L140 590 L140 50 L135 45 L60 45 L60 0 L322 0 L322 45 L227 45 L220 51 L220 302 L390 302 L395 297 L395 222 L440 222 L440 427 L395 427 L395 352 L390 347 L220 347 L220 605 L435 605 L504 485 L509 485 L509 650 L55 650 L55 640 Z " />
<glyph glyph-name="G" unicode="G" horiz-adv-x="692" d="M407 221 L507 221 L512 216 L512 62 C474 44 433 35 388 35 C239 35 140 142 140 335 C140 511 238 613 369 616 C433 617 474 602 514 565 L573 462 L578 462 L578 631 C524 654 462 665 393 665 C201 665 50 524 50 327 C50 126 177 -15 373 -15 C465 -15 525 2 592 45 L592 216 L597 221 L662 221 L662 266 L407 266 L407 221 Z " />
<glyph glyph-name="H" unicode="H" horiz-adv-x="780" d="M725 650 L470 650 L470 640 L560 590 L560 367 L220 367 L220 590 L310 640 L310 650 L55 650 L55 640 L140 590 L140 50 L135 45 L60 45 L60 0 L300 0 L300 45 L225 45 L220 50 L220 322 L560 322 L560 50 L555 45 L480 45 L480 0 L720 0 L720 45 L645 45 L640 50 L640 590 L725 640 L725 650 Z " />
<glyph glyph-name="I" unicode="I" horiz-adv-x="360" d="M300 0 L300 45 L225 45 L220 50 L220 590 L305 640 L305 650 L55 650 L55 640 L140 590 L140 50 L135 45 L60 45 L60 0 L300 0 Z " />
<glyph glyph-name="J" unicode="J" horiz-adv-x="350" d="M25 -162 C206 -87 216 24 220 144 L220 590 L305 640 L305 650 L55 650 L55 640 L140 590 L140 154 C140 89 135 40 125 7 C105 -60 67 -102 14 -142 L25 -162 L25 -162 Z " />
<glyph glyph-name="K" unicode="K" horiz-adv-x="667" d="M220 590 L305 640 L305 650 L55 650 L55 640 L140 590 L140 50 L135 45 L60 45 L60 0 L300 0 L300 45 L225 45 L220 50 L220 590 Z M642 650 L405 650 L405 640 L490 590 L234 337 L501 0 L632 0 L632 45 L571 45 L563 50 L317 361 L552 590 L642 640 L642 650 Z " />
<glyph glyph-name="L" unicode="L" horiz-adv-x="558" d="M513 0 L513 165 L503 165 L440 45 L220 45 L220 590 L310 640 L310 650 L55 650 L55 640 L140 590 L140 50 L135 45 L60 45 L60 0 L513 0 Z " />
<glyph glyph-name="M" unicode="M" horiz-adv-x="918" d="M798 50 L763 590 L853 640 L853 650 L684 650 L458 126 L455 126 L233 650 L65 650 L65 640 L155 590 L120 50 L115 45 L40 45 L40 0 L246 0 L246 45 L171 45 L166 50 L196 533 L425 0 L452 0 L688 546 L718 50 L713 45 L638 45 L638 0 L878 0 L878 45 L803 45 L798 50 Z " />
<glyph glyph-name="N" unicode="N" horiz-adv-x="772" d="M497 640 L582 590 L582 157 L224 650 L55 650 L55 640 L140 590 L140 50 L135 45 L60 45 L60 0 L275 0 L275 45 L200 45 L195 50 L195 553 L598 0 L637 0 L637 590 L722 640 L722 650 L497 650 L497 640 Z " />
<glyph glyph-name="O" unicode="O" horiz-adv-x="734" d="M360 -15 C558 -15 684 127 684 338 C684 534 562 665 379 665 C195 665 50 529 50 321 C50 108 182 -15 360 -15 L360 -15 Z M369 33 C232 33 137 144 137 335 C137 509 234 617 369 617 C417 617 473 599 513 559 C569 501 596 420 596 320 C596 130 503 33 369 33 L369 33 Z " />
<glyph glyph-name="P" unicode="P" horiz-adv-x="563" d="M269 256 C415 256 533 333 533 470 C533 589 446 650 293 650 L55 650 L55 640 L140 590 L140 50 L135 45 L60 45 L60 0 L320 0 L320 45 L225 45 L220 50 L220 256 L269 256 L269 256 Z M279 604 C386 604 448 555 448 463 C448 359 379 302 268 302 L220 302 L220 604 L279 604 L279 604 Z " />
<glyph glyph-name="Q" unicode="Q" horiz-adv-x="734" d="M471 12 C606 59 684 178 684 338 C684 534 562 665 379 665 C198 667 47 523 50 324 C50 179 105 79 233 11 C275 -12 350 -41 457 -76 C564 -111 631 -132 658 -141 C684 -150 702 -156 713 -160 L718 -142 C702 -134 685 -125 667 -115 C648 -105 630 -94 612 -83 C593 -71 546 -39 471 12 L471 12 Z M137 335 C137 509 234 617 369 617 C417 617 473 599 513 559 C569 501 596 420 596 320 C596 125 501 25 371 25 C227 25 137 147 137 335 L137 335 Z " />
<glyph glyph-name="R" unicode="R" horiz-adv-x="674" d="M569 50 L394 306 C489 335 540 424 535 488 C531 599 478 649 304 650 L55 650 L55 640 L140 590 L140 50 L135 45 L60 45 L60 0 L300 0 L300 45 L225 45 L220 50 L220 292 L307 292 L506 0 L649 0 L649 45 L577 45 L569 50 Z M220 604 L302 604 C363 607 452 571 448 484 C448 386 391 337 277 337 L220 337 L220 604 Z " />
<glyph glyph-name="S" unicode="S" horiz-adv-x="486" d="M244 -15 C299 -15 358 4 394 43 C430 82 441 123 441 159 C441 205 425 246 393 283 C384 293 371 304 356 316 C340 328 311 346 269 370 C226 393 197 413 180 429 C146 460 136 491 136 519 C134 586 205 622 247 618 C290 618 326 603 355 573 L410 477 L415 477 L415 623 C352 656 303 665 255 665 C147 665 67 589 67 494 C67 451 79 416 103 387 C126 358 170 326 233 293 C336 240 374 198 374 135 C376 65 301 28 255 32 C204 32 159 51 120 89 L65 185 L60 185 L60 37 C117 2 179 -15 244 -15 L244 -15 Z " />
<glyph glyph-name="T" unicode="T" horiz-adv-x="652" d="M446 0 L446 45 L371 45 L366 50 L366 605 L526 605 L596 480 L602 480 L602 650 L50 650 L50 480 L55 480 L126 605 L286 605 L286 50 L281 45 L206 45 L206 0 L446 0 Z " />
<glyph glyph-name="U" unicode="U" horiz-adv-x="750" d="M379 -15 C540 -15 625 80 625 260 L625 590 L710 640 L710 650 L480 650 L480 640 L570 590 L570 267 C570 110 516 35 385 35 C261 35 208 108 208 267 L208 590 L298 640 L298 650 L40 650 L40 640 L125 590 L125 261 C125 64 199 -15 379 -15 L379 -15 Z " />
<glyph glyph-name="V" unicode="V" horiz-adv-x="685" d="M362 -5 L590 590 L675 640 L675 650 L445 650 L445 640 L535 590 L360 110 L358 110 L182 590 L272 640 L272 650 L10 650 L10 640 L95 590 L324 -5 L362 -5 Z " />
<glyph glyph-name="W" unicode="W" horiz-adv-x="932" d="M694 640 L784 590 L648 99 L646 99 L501 650 L417 650 L447 548 L312 99 L310 99 L182 590 L272 640 L272 650 L10 650 L10 640 L95 590 L278 -5 L324 -5 L472 465 L610 -5 L656 -5 L837 590 L922 640 L922 650 L694 650 L694 640 Z " />
<glyph glyph-name="X" unicode="X" horiz-adv-x="686" d="M589 51 L378 350 L570 590 L655 640 L655 650 L413 650 L413 640 L503 590 L350 391 L210 590 L300 640 L300 650 L25 650 L25 640 L110 590 L295 326 L97 51 L90 45 L20 45 L20 0 L237 0 L237 45 L162 45 L158 49 L324 283 L489 48 L485 45 L410 45 L410 0 L666 0 L666 45 L596 45 L589 51 Z " />
<glyph glyph-name="Y" unicode="Y" horiz-adv-x="644" d="M442 0 L442 45 L367 45 L362 50 L362 259 L549 590 L634 640 L634 650 L406 650 L406 640 L496 590 L341 305 L339 305 L186 590 L276 640 L276 650 L10 650 L10 640 L95 591 L282 255 L282 50 L277 45 L202 45 L202 0 L442 0 Z " />
<glyph glyph-name="Z" unicode="Z" horiz-adv-x="560" d="M433 45 L156 45 L501 637 L501 650 L62 650 L62 470 L67 470 L147 605 L389 605 L45 13 L45 0 L515 0 L515 185 L510 185 L433 45 Z " />
<glyph glyph-name="bracketleft" unicode="&#x5b;" horiz-adv-x="270" d="M250 -230 L250 -185 L120 -185 L120 654 L250 654 L250 699 L50 699 L50 -230 L250 -230 Z " />
<glyph glyph-name="backslash" unicode="&#x5c;" horiz-adv-x="410" d="M400 -194 L80 719 L25 719 L345 -194 L400 -194 Z " />
<glyph glyph-name="bracketright" unicode="&#x5d;" horiz-adv-x="270" d="M220 700 L20 700 L20 655 L150 655 L150 -184 L20 -184 L20 -229 L220 -229 L220 700 Z " />
<glyph glyph-name="asciicircum" unicode="&#x5e;" horiz-adv-x="560" d="M125 135 L280 404 L435 135 L498 135 L307 465 L253 465 L62 135 L125 135 Z " />
<glyph glyph-name="underscore" unicode="&#x5f;" horiz-adv-x="440" d="M430 -70 L430 -25 L10 -25 L10 -70 L430 -70 Z " />
<glyph glyph-name="grave" unicode="&#x60;" horiz-adv-x="283" d="M224 480 L132 664 L32 664 L32 656 L189 480 L224 480 Z " />
<glyph glyph-name="a" unicode="a" horiz-adv-x="431" d="M337 50 L337 289 C341 384 259 423 203 420 C142 420 94 397 47 352 L60 328 C99 353 137 366 176 366 C245 366 267 330 267 249 L267 218 C112 211 35 167 35 86 C33 21 94 -13 135 -10 C173 -10 217 7 267 41 L267 0 L402 0 L402 45 L342 45 L337 50 Z M171 42 C132 42 106 62 106 99 C106 152 151 178 267 186 L267 59 C235 48 203 42 171 42 L171 42 Z " />
<glyph glyph-name="b" unicode="b" horiz-adv-x="504" d="M307 420 C260 420 212 399 155 364 L155 717 L149 720 L18 657 L18 652 L85 620 L85 23 C137 1 191 -10 248 -10 C378 -10 464 80 464 217 C464 337 392 420 307 420 L307 420 Z M261 30 C208 30 179 47 155 70 L155 347 C180 355 230 361 265 361 C345 365 390 286 387 195 C387 85 345 30 261 30 L261 30 Z " />
<glyph glyph-name="c" unicode="c" horiz-adv-x="409" d="M229 -10 C285 -10 342 12 379 48 L368 69 C324 46 280 44 265 44 C176 44 117 104 117 225 C117 325 164 379 229 379 C255 379 278 371 298 355 L357 280 L362 280 L362 398 C331 413 294 420 252 420 C107 420 36 296 40 193 C40 67 118 -10 229 -10 L229 -10 Z " />
<glyph glyph-name="d" unicode="d" horiz-adv-x="522" d="M422 50 L422 717 L416 720 L285 657 L285 652 L352 620 L352 399 C323 413 288 420 248 420 C110 420 40 309 40 193 C40 73 112 -10 197 -10 C245 -10 293 12 352 48 L352 0 L492 0 L492 45 L427 45 L422 50 Z M239 49 C159 45 114 124 117 215 C117 325 157 380 238 380 C290 380 333 357 352 318 L352 64 C324 56 274 49 239 49 L239 49 Z " />
<glyph glyph-name="e" unicode="e" horiz-adv-x="430" d="M395 257 C395 357 335 421 237 421 C192 421 133 399 93 351 C53 303 40 248 40 196 C41 51 148 -14 235 -10 C292 -10 353 12 390 48 L379 69 C335 46 291 44 276 44 C180 44 118 99 117 223 L393 223 L395 257 L395 257 Z M230 380 C295 380 315 320 317 259 L119 259 C128 342 177 380 230 380 L230 380 Z " />
<glyph glyph-name="f" unicode="f" horiz-adv-x="315" d="M246 0 L246 45 L171 45 L166 50 L166 353 L171 359 L316 359 L316 404 L171 404 L166 409 L166 530 C166 625 193 672 246 672 C268 672 289 665 310 650 L365 580 L370 580 L370 700 C342 711 311 717 277 717 C148 717 96 637 96 436 L96 409 L91 404 L31 404 L31 359 L91 359 L96 353 L96 50 L91 45 L31 45 L31 0 L246 0 Z " />
<glyph glyph-name="g" unicode="g" horiz-adv-x="458" d="M332 377 C303 406 265 420 218 420 C116 420 46 346 46 249 C46 194 73 146 118 122 C69 85 45 50 45 19 C45 -12 61 -32 94 -42 C90 -46 65 -67 51 -82 C37 -97 24 -117 24 -144 C24 -200 83 -230 172 -230 C225 -230 299 -218 348 -184 C396 -150 412 -108 412 -68 C412 -7 363 22 248 22 L222 22 C138 22 114 34 114 63 C114 78 121 95 135 114 C154 106 176 102 201 102 C256 102 302 125 329 152 C356 179 375 213 375 264 C375 297 368 325 353 350 L448 341 L448 425 L332 377 Z M211 136 C145 136 121 209 121 271 C121 346 157 387 210 387 C271 390 304 308 301 247 C301 172 267 136 211 136 L211 136 Z M256 -50 C317 -50 348 -66 348 -99 C348 -120 335 -144 302 -164 C269 -184 218 -195 185 -195 C128 -195 93 -171 93 -120 C93 -95 101 -71 116 -46 C133 -49 155 -50 182 -50 L256 -50 Z " />
<glyph glyph-name="h" unicode="h" horiz-adv-x="536" d="M442 50 L442 303 C442 379 400 420 312 420 C277 420 230 401 169 362 L169 717 L163 720 L32 657 L32 652 L99 620 L99 50 L94 45 L34 45 L34 0 L239 0 L239 45 L174 45 L169 50 L169 342 C214 351 251 356 280 356 C347 356 372 336 372 240 L372 50 L367 45 L302 45 L302 0 L507 0 L507 45 L447 45 L442 50 Z " />
<glyph glyph-name="i" unicode="i" horiz-adv-x="263" d="M127 524 C155 524 181 550 181 578 C181 607 155 633 127 633 C98 633 72 607 72 578 C72 550 98 524 127 524 L127 524 Z M234 0 L234 45 L174 45 L169 50 L169 417 L163 420 L32 359 L32 354 L99 322 L99 50 L94 45 L34 45 L34 0 L234 0 Z " />
<glyph glyph-name="j" unicode="j" horiz-adv-x="244" d="M122 524 C150 524 176 550 176 578 C176 607 150 633 122 633 C93 633 67 607 67 578 C67 550 93 524 122 524 L122 524 Z M8 -227 C60 -212 96 -194 115 -173 C153 -131 164 -65 164 27 L164 417 L158 420 L27 359 L27 354 L94 322 L94 -11 C94 -75 87 -119 72 -144 C57 -168 32 -188 -5 -203 L8 -227 L8 -227 Z " />
<glyph glyph-name="k" unicode="k" horiz-adv-x="504" d="M169 717 L163 720 L32 657 L32 652 L99 620 L99 50 L94 45 L34 45 L34 0 L234 0 L234 45 L174 45 L169 50 L169 717 Z M248 238 L470 401 L470 404 L271 404 L271 399 L329 347 L177 223 L362 0 L481 0 L481 45 L421 45 L248 238 Z " />
<glyph glyph-name="l" unicode="l" horiz-adv-x="268" d="M239 0 L239 45 L174 45 L169 50 L169 717 L163 720 L32 657 L32 652 L99 620 L99 50 L94 45 L34 45 L34 0 L239 0 Z " />
<glyph glyph-name="m" unicode="m" horiz-adv-x="789" d="M695 50 L695 303 C695 381 653 420 570 420 C533 420 488 399 424 356 C408 399 369 420 307 420 C271 420 228 400 167 360 L159 417 L153 420 L32 358 L32 353 L99 321 L99 50 L94 45 L34 45 L34 0 L234 0 L234 45 L174 45 L169 50 L169 342 C211 351 246 356 275 356 C343 356 362 327 362 240 L362 50 L357 45 L297 45 L297 0 L497 0 L497 45 L437 45 L432 50 L432 303 C432 319 431 332 428 343 L429 341 C470 351 507 356 538 356 C606 356 625 327 625 240 L625 50 L620 45 L560 45 L560 0 L760 0 L760 45 L700 45 L695 50 Z " />
<glyph glyph-name="n" unicode="n" horiz-adv-x="536" d="M442 50 L442 303 C442 379 400 420 312 420 C277 420 228 400 167 361 L159 418 L153 421 L32 359 L32 354 L99 322 L99 50 L94 45 L34 45 L34 0 L239 0 L239 45 L174 45 L169 50 L169 342 C214 351 251 356 280 356 C347 356 372 336 372 240 L372 50 L367 45 L302 45 L302 0 L507 0 L507 45 L447 45 L442 50 Z " />
<glyph glyph-name="o" unicode="o" horiz-adv-x="490" d="M241 -10 C368 -10 450 95 450 213 C450 341 364 420 251 420 C121 420 40 316 40 197 C40 134 63 72 108 36 C152 0 198 -10 241 -10 L241 -10 Z M254 30 C215 30 182 49 156 87 C130 124 117 170 117 223 C117 330 171 380 235 380 C274 380 306 362 333 325 C359 288 372 243 372 188 C372 85 326 30 254 30 L254 30 Z " />
<glyph glyph-name="p" unicode="p" horiz-adv-x="515" d="M316 420 C265 420 221 398 164 361 L155 418 L149 421 L28 359 L28 354 L95 322 L95 -180 L90 -185 L30 -185 L30 -230 L245 -230 L245 -185 L170 -185 L165 -180 L165 14 C195 -2 229 -10 267 -10 C396 -10 475 102 475 217 C475 351 386 424 316 420 L316 420 Z M277 30 C226 30 184 53 165 92 L165 343 C193 352 243 361 276 361 C356 365 401 286 398 195 C398 94 354 30 277 30 L277 30 Z " />
<glyph glyph-name="q" unicode="q" horiz-adv-x="499" d="M419 -180 L419 387 C367 409 313 420 256 420 C121 420 40 322 40 195 C40 73 112 -10 197 -10 C240 -10 277 0 349 47 L349 -180 L344 -185 L269 -185 L269 -230 L484 -230 L484 -185 L424 -185 L419 -180 Z M239 50 C160 50 117 113 117 216 C117 325 158 380 249 380 C288 380 325 365 349 340 L349 64 C324 56 274 50 239 50 L239 50 Z " />
<glyph glyph-name="r" unicode="r" horiz-adv-x="328" d="M300 420 C276 420 232 397 169 350 L159 418 L153 421 L32 359 L32 354 L99 322 L99 50 L94 45 L34 45 L34 0 L249 0 L249 45 L174 45 L169 50 L169 331 C206 340 241 345 274 345 C290 345 307 343 325 340 L325 413 C317 418 309 420 300 420 L300 420 Z " />
<glyph glyph-name="s" unicode="s" horiz-adv-x="346" d="M172 -10 C222 -13 311 24 310 107 C310 162 277 192 204 233 C134 271 110 289 110 327 C110 360 136 383 175 383 C200 383 225 372 241 357 L293 299 L298 299 L298 401 C265 414 230 420 192 420 C107 420 50 372 50 305 C50 250 84 214 148 179 C152 177 162 172 177 165 C192 157 204 150 213 144 C231 132 248 114 248 85 C248 50 220 28 179 28 C151 28 120 43 99 64 L49 119 L44 119 L44 14 C87 -2 130 -10 172 -10 L172 -10 Z " />
<glyph glyph-name="t" unicode="t" horiz-adv-x="316" d="M186 -10 C229 -10 273 8 301 27 L290 48 C269 41 247 37 224 37 C167 37 151 69 151 172 L151 359 L286 359 L286 404 L151 404 L151 535 L146 535 L16 364 L16 359 L76 359 L81 354 L81 117 C81 25 113 -10 186 -10 L186 -10 Z " />
<glyph glyph-name="u" unicode="u" horiz-adv-x="521" d="M425 50 L425 417 L419 420 L288 357 L288 352 L355 320 L355 68 C313 59 278 54 249 54 C181 54 162 83 162 170 L162 416 L156 419 L25 356 L25 351 L92 319 L92 107 C92 29 134 -10 217 -10 C252 -10 294 9 355 48 L355 0 L490 0 L490 45 L430 45 L425 50 Z " />
<glyph glyph-name="v" unicode="v" horiz-adv-x="459" d="M251 -10 L414 354 L464 401 L464 404 L296 404 L296 399 L367 354 L252 88 L248 88 L136 354 L201 401 L201 404 L-5 404 L-5 399 L51 354 L217 -10 L251 -10 Z " />
<glyph glyph-name="w" unicode="w" horiz-adv-x="655" d="M486 401 L558 355 L464 87 L460 87 L348 414 L279 378 L321 269 L246 87 L242 87 L135 354 L203 401 L203 404 L-5 404 L-5 399 L53 354 L209 -10 L241 -10 L338 225 L429 -10 L462 -10 L603 354 L660 401 L660 404 L486 404 L486 401 Z " />
<glyph glyph-name="x" unicode="x" horiz-adv-x="487" d="M485 404 L286 404 L286 399 L357 354 L256 247 L164 354 L229 401 L229 404 L3 404 L3 399 L74 354 L205 203 L69 51 L62 45 L12 45 L12 0 L178 0 L178 45 L123 45 L119 49 L230 175 L337 51 L330 45 L275 45 L275 0 L484 0 L484 45 L434 45 L426 51 L281 218 L410 354 L485 401 L485 404 Z " />
<glyph glyph-name="y" unicode="y" horiz-adv-x="467" d="M299 399 L370 354 L254 57 L131 353 L196 401 L196 404 L-5 404 L-5 399 L52 354 L220 -36 L75 -213 L161 -250 L257 -27 L418 354 L472 401 L472 404 L299 404 L299 399 Z " />
<glyph glyph-name="z" unicode="z" horiz-adv-x="399" d="M373 0 L373 129 L368 129 L305 45 L131 45 L366 388 L366 404 L44 404 L44 275 L49 275 L111 359 L260 359 L260 354 L28 10 L28 0 L373 0 Z " />
<glyph glyph-name="braceleft" unicode="&#x7b;" horiz-adv-x="284" d="M264 699 C123 699 114 633 116 528 L126 378 C131 309 99 269 30 257 L30 212 C99 200 131 160 126 91 L116 -59 C108 -190 148 -230 264 -230 L264 -185 C227 -185 205 -177 197 -161 C188 -144 185 -116 188 -76 L197 57 C203 139 176 198 117 235 C176 271 203 330 197 412 L188 545 C185 590 188 619 199 633 C209 647 231 654 264 654 L264 699 Z " />
<glyph glyph-name="bar" unicode="&#x7c;" horiz-adv-x="255" d="M155 -230 L155 719 L100 719 L100 -230 L155 -230 Z " />
<glyph glyph-name="braceright" unicode="&#x7d;" horiz-adv-x="284" d="M168 528 C176 659 136 699 20 699 L20 654 C57 654 79 646 88 630 C96 613 99 585 96 545 L87 412 C81 330 108 271 167 235 C108 198 81 139 87 57 L96 -76 C99 -121 96 -150 86 -164 C75 -178 53 -185 20 -185 L20 -230 C161 -230 170 -164 168 -59 L158 91 C153 160 185 200 254 212 L254 257 C185 269 153 309 158 378 L168 528 Z " />
<glyph glyph-name="asciitilde" unicode="&#x7e;" horiz-adv-x="560" d="M366 154 C421 154 453 179 496 228 L459 257 C416 214 392 207 367 207 C350 207 322 216 285 233 C248 250 217 259 194 259 C139 259 107 234 64 185 L101 156 C144 199 168 206 193 206 C205 206 226 200 255 187 C314 162 338 154 366 154 L366 154 Z " />
<glyph glyph-name="uni00A0" unicode="&#xa0;" horiz-adv-x="220" d="" />
<glyph glyph-name="exclamdown" unicode="&#xa1;" horiz-adv-x="238" d="M119 425 C87 425 60 399 60 367 C60 335 87 308 119 308 C151 308 177 335 177 367 C177 399 151 425 119 425 L119 425 Z M111 228 L78 -240 L178 -240 L145 228 L111 228 Z " />
<glyph glyph-name="cent" unicode="&#xa2;" horiz-adv-x="328" d="M289 127 C265 115 240 109 214 109 C196 109 180 112 166 118 L228 340 L235 335 L279 272 L285 272 L285 371 C272 376 257 381 240 384 L257 447 L223 447 L207 388 L199 388 C150 388 110 372 78 341 C45 310 29 269 29 218 C26 144 80 87 120 76 L101 6 L135 6 L152 68 L180 66 C225 66 268 82 299 109 L289 127 Z M102 240 C102 313 133 353 182 353 L197 352 L137 138 C114 161 102 195 102 240 L102 240 Z " />
<glyph glyph-name="sterling" unicode="&#xa3;" horiz-adv-x="398" d="M330 40 L138 40 C182 73 195 113 195 144 C195 165 191 185 182 204 L303 204 L303 243 L163 243 C141 281 128 308 125 323 C121 338 119 351 119 362 C119 415 155 452 206 452 C243 452 277 437 317 369 L332 344 L338 344 L338 469 C303 483 264 490 223 490 C118 490 48 434 48 349 C48 308 65 276 89 243 L42 243 L42 204 L115 204 C130 178 138 152 138 126 C138 87 119 58 80 39 L38 39 L38 0 L393 0 L393 132 L383 132 L330 40 Z " />
<glyph glyph-name="currency" unicode="&#xa4;" horiz-adv-x="472" d="M399 323 C399 355 387 391 368 418 L432 482 L394 521 L329 456 C304 475 268 486 236 486 C203 486 171 476 142 457 L79 520 L40 482 L104 418 C85 393 73 356 73 323 C73 291 84 255 103 230 L41 168 L79 129 L141 191 C176 167 211 161 236 161 C271 161 304 172 331 191 L393 129 L432 167 L369 230 C388 255 399 291 399 323 L399 323 Z M114 323 C114 357 126 386 150 411 C174 435 203 447 236 447 C269 447 298 435 322 411 C346 386 358 357 358 323 C358 289 346 260 322 236 C298 211 269 199 236 199 C203 199 174 211 150 236 C126 260 114 289 114 323 L114 323 Z " />
<glyph glyph-name="yen" unicode="&#xa5;" horiz-adv-x="469" d="M306 471 L373 432 L259 262 L257 262 L145 432 L216 471 L216 480 L-6 480 L-6 471 L60 432 L154 296 L81 296 L81 257 L181 257 L206 220 L206 198 L81 198 L81 159 L206 159 L206 43 L202 39 L146 39 L146 0 L343 0 L343 39 L285 39 L281 43 L281 159 L407 159 L407 198 L281 198 L281 226 L302 257 L407 257 L407 296 L329 296 L422 432 L493 471 L493 480 L306 480 L306 471 Z " />
<glyph glyph-name="brokenbar" unicode="&#xa6;" horiz-adv-x="255" d="M155 295 L155 720 L100 720 L100 295 L155 295 Z M155 -230 L155 195 L100 195 L100 -230 L155 -230 Z " />
<glyph glyph-name="section" unicode="&#xa7;" horiz-adv-x="500" d="M445 203 C445 263 415 316 330 379 L261 430 C225 456 202 477 191 494 C180 511 175 528 175 547 C175 592 210 622 253 622 C300 622 343 591 383 530 L414 482 L419 482 L419 628 C372 653 320 665 263 665 C156 665 106 594 106 523 C106 489 115 458 133 431 C88 402 61 353 61 293 C61 222 102 168 176 117 L252 65 C321 17 338 -15 338 -52 C338 -97 303 -127 260 -127 C213 -127 170 -96 130 -35 L99 13 L94 13 L94 -133 C141 -158 193 -170 250 -170 C357 -170 407 -99 407 -28 C407 7 395 42 378 69 C419 98 445 146 445 203 L445 203 Z M224 192 C143 245 126 283 126 320 C126 349 139 379 162 396 C175 383 192 369 215 352 L282 304 C323 275 350 251 362 232 C374 213 380 194 380 176 C380 147 369 122 348 103 C335 116 318 130 298 143 L224 192 L224 192 Z " />
<glyph glyph-name="dieresis" unicode="&#xa8;" horiz-adv-x="338" d="M77 524 C105 524 131 550 131 578 C131 607 105 633 77 633 C48 633 22 607 22 578 C22 550 48 524 77 524 L77 524 Z M262 524 C290 524 316 550 316 578 C316 607 290 633 262 633 C233 633 207 607 207 578 C207 550 233 524 262 524 L262 524 Z " />
<glyph glyph-name="copyright" unicode="&#xa9;" horiz-adv-x="790" d="M395 0 C577 0 730 149 730 325 C730 501 577 650 395 650 C213 650 60 501 60 325 C60 149 213 0 395 0 L395 0 Z M396 55 C247 55 121 181 121 329 C121 478 247 604 396 604 C544 604 670 478 670 329 C670 179 546 55 396 55 L396 55 Z M409 161 C445 161 493 171 518 186 L518 285 L511 285 L480 235 C459 206 432 196 408 196 C349 196 309 254 309 334 C309 413 345 471 404 471 C432 471 457 457 473 436 L504 391 L512 391 L512 490 C484 500 451 505 413 505 C290 505 235 408 235 325 C235 223 316 161 409 161 L409 161 Z " />
<glyph glyph-name="ordfeminine" unicode="&#xaa;" horiz-adv-x="326" d="M260 404 L260 567 C260 631 221 667 156 667 C111 667 71 651 35 618 L46 598 C73 616 102 625 132 625 C181 625 199 600 199 544 L199 524 C71 516 25 480 25 427 C25 384 57 358 100 358 C127 358 160 370 199 393 L199 365 L307 365 L307 400 L264 400 L260 404 Z M133 398 C105 398 85 413 85 438 C85 471 118 492 199 498 L199 409 C174 402 152 398 133 398 L133 398 Z " />
<glyph glyph-name="guillemotleft" unicode="&#xab;" horiz-adv-x="457" d="M254 44 L132 202 L254 360 L205 360 L35 205 L35 200 L205 44 L254 44 Z M422 44 L300 202 L422 360 L373 360 L203 205 L203 200 L373 44 L422 44 Z " />
<glyph glyph-name="logicalnot" unicode="&#xac;" horiz-adv-x="550" d="M75 181 L420 181 L420 0 L475 0 L475 233 L75 233 L75 181 Z " />
<glyph glyph-name="uni00AD" unicode="&#xad;" horiz-adv-x="325" d="M275 174 L275 239 L50 239 L50 174 L275 174 Z " />
<glyph glyph-name="registered" unicode="&#xae;" horiz-adv-x="527" d="M264 665 C153 665 60 573 60 465 C60 412 84 352 131 314 C178 276 224 264 264 264 C374 264 467 356 467 465 C473 567 368 671 264 665 L264 665 Z M264 302 C219 302 181 318 149 350 C117 382 101 420 101 465 C96 548 180 632 264 627 C308 627 346 611 378 579 C410 547 426 509 426 465 C431 381 347 297 264 302 L264 302 Z M286 465 C311 474 330 493 330 516 C330 551 302 565 245 565 L171 565 L171 561 L199 545 L199 399 L197 398 L172 398 L172 380 L261 380 L261 398 L235 398 L234 399 L234 460 L250 460 L314 380 L365 380 L365 398 L342 398 L340 399 L286 465 Z M252 547 C284 547 293 531 293 516 C293 491 278 478 247 478 L234 478 L234 547 L252 547 Z " />
<glyph glyph-name="macron" unicode="&#xaf;" horiz-adv-x="425" d="M332 545 L332 597 L68 597 L68 545 L332 545 Z " />
<glyph glyph-name="degree" unicode="&#xb0;" horiz-adv-x="268" d="M134 437 C206 435 253 509 248 551 C250 623 176 670 134 665 C62 667 15 593 20 551 C18 479 92 432 134 437 L134 437 Z M134 480 C97 480 65 512 65 551 C65 590 97 622 134 622 C171 622 203 590 203 551 C203 512 171 480 134 480 L134 480 Z " />
<glyph glyph-name="plusminus" unicode="&#xb1;" horiz-adv-x="560" d="M308 410 L253 410 L253 268 L90 268 L90 216 L253 216 L253 80 L308 80 L308 216 L470 216 L470 268 L308 268 L308 410 Z M470 -10 L470 42 L91 42 L91 -10 L470 -10 Z " />
<glyph glyph-name="twosuperior" unicode="&#xb2;" horiz-adv-x="335" d="M273 420 L270 416 L91 416 L176 493 C250 558 287 619 287 678 C291 723 247 794 155 791 C115 791 68 777 37 758 L37 660 L44 660 L76 707 C109 754 128 759 152 759 C193 759 219 723 219 675 C219 612 185 558 116 485 L24 388 L24 365 L309 365 L309 467 L273 467 L273 420 Z " />
<glyph glyph-name="threesuperior" unicode="&#xb3;" horiz-adv-x="324" d="M195 590 C247 610 281 651 281 698 C281 753 235 791 159 791 C117 791 77 780 40 758 L40 662 L46 662 L80 711 C102 743 126 759 151 759 C190 759 214 731 214 688 C214 635 178 599 119 599 L95 599 L95 565 L134 565 C198 565 229 529 229 477 C229 422 197 387 154 387 C109 387 85 411 65 440 L41 477 L36 477 L36 379 C75 363 113 355 150 355 C179 355 206 362 231 375 C281 401 297 442 297 481 C297 536 255 579 195 590 L195 590 Z " />
<glyph glyph-name="acute" unicode="&#xb4;" horiz-adv-x="283" d="M95 480 L252 656 L252 664 L152 664 L60 480 L95 480 Z " />
<glyph glyph-name="mu" unicode="&#xb5;" horiz-adv-x="519" d="M420 50 L420 417 L414 420 L283 357 L283 352 L350 320 L350 68 C308 59 273 54 244 54 C176 54 157 83 157 170 L157 416 L151 419 L20 356 L20 351 L87 319 L87 -230 L177 -230 L130 10 C151 -3 175 -10 204 -10 C247 -10 289 9 350 48 L350 0 L489 0 L489 45 L425 45 L420 50 Z " />
<glyph glyph-name="paragraph" unicode="&#xb6;" horiz-adv-x="572" d="M270 650 C110 650 30 591 30 472 C30 353 134 272 276 272 L293 272 L293 -230 L338 -230 L338 600 L412 600 L412 -230 L457 -230 L457 589 L542 640 L542 650 L270 650 L270 650 Z " />
<glyph glyph-name="periodcentered" unicode="&#xb7;" horiz-adv-x="177" d="M98 142 C130 142 157 168 157 200 C157 232 130 259 98 259 C66 259 40 232 40 200 C40 168 66 142 98 142 L98 142 Z " />
<glyph glyph-name="cedilla" unicode="&#xb8;" horiz-adv-x="242" d="M121 -68 L154 14 L118 14 L74 -100 L101 -98 C133 -98 156 -114 156 -142 C156 -172 137 -187 99 -187 C82 -187 63 -182 43 -173 L31 -194 C62 -218 94 -230 127 -230 C186 -230 227 -196 227 -145 C227 -100 194 -67 143 -67 L121 -68 Z " />
<glyph glyph-name="onesuperior" unicode="&#xb9;" horiz-adv-x="264" d="M239 365 L239 400 L173 400 L169 403 L169 782 L33 782 L33 747 L103 747 L107 744 L107 403 L103 400 L38 400 L38 365 L239 365 Z " />
<glyph glyph-name="ordmasculine" unicode="&#xba;" horiz-adv-x="369" d="M181 358 C228 358 267 374 296 405 C325 436 340 473 340 518 C340 601 286 667 189 667 C141 667 102 651 73 620 C44 589 29 551 29 506 C29 415 92 358 181 358 L181 358 Z M192 389 C127 386 91 477 94 527 C94 580 120 635 176 635 C231 635 274 575 274 498 C274 427 241 389 192 389 L192 389 Z " />
<glyph glyph-name="guillemotright" unicode="&#xbb;" horiz-adv-x="457" d="M84 45 L254 200 L254 205 L84 361 L35 361 L157 203 L35 45 L84 45 Z M252 45 L422 200 L422 205 L252 361 L203 361 L325 203 L203 45 L252 45 Z " />
<glyph glyph-name="onequarter" unicode="&#xbc;" horiz-adv-x="801" d="M193 -35 L245 -35 L578 687 L526 687 L193 -35 Z M59 278 L59 243 L260 243 L260 278 L194 278 L190 281 L190 660 L54 660 L54 625 L124 625 L128 622 L128 281 L124 278 L59 278 Z M670 422 L632 422 L412 134 L412 114 L610 114 L610 38 L606 35 L543 35 L543 0 L733 0 L733 35 L674 35 L670 38 L670 114 L756 114 L768 153 L768 159 L670 159 L670 422 Z M610 345 L610 159 L470 159 L610 345 Z " />
<glyph glyph-name="onehalf" unicode="&#xbd;" horiz-adv-x="800" d="M167 -35 L219 -35 L552 687 L500 687 L167 -35 Z M45 278 L45 243 L246 243 L246 278 L180 278 L176 281 L176 660 L40 660 L40 625 L110 625 L114 622 L114 281 L110 278 L45 278 Z M725 55 L722 51 L543 51 L628 128 C702 193 739 254 739 313 C743 358 699 429 607 426 C567 426 520 412 489 393 L489 295 L496 295 L528 342 C561 389 580 394 604 394 C645 394 671 358 671 310 C671 247 637 193 568 120 L476 23 L476 0 L761 0 L761 102 L725 102 L725 55 Z " />
<glyph glyph-name="threequarters" unicode="&#xbe;" horiz-adv-x="800" d="M211 -35 L263 -35 L596 687 L544 687 L211 -35 Z M300 359 C300 414 258 457 198 468 C250 488 284 529 284 576 C284 631 238 669 162 669 C120 669 80 658 43 636 L43 540 L49 540 L83 589 C105 621 129 637 154 637 C193 637 217 609 217 566 C217 513 181 477 122 477 L98 477 L98 443 L137 443 C201 443 232 407 232 355 C232 300 200 265 157 265 C112 265 88 289 68 318 L44 355 L39 355 L39 257 C78 241 116 233 153 233 C182 233 209 240 234 253 C284 279 300 320 300 359 L300 359 Z M681 422 L643 422 L423 134 L423 114 L621 114 L621 38 L617 35 L554 35 L554 0 L744 0 L744 35 L685 35 L681 38 L681 114 L767 114 L779 153 L779 159 L681 159 L681 422 Z M621 345 L621 159 L481 159 L621 345 Z " />
<glyph glyph-name="questiondown" unicode="&#xbf;" horiz-adv-x="423" d="M256 308 C288 308 314 335 314 367 C314 399 288 425 256 425 C224 425 197 399 197 367 C197 335 224 308 256 308 L256 308 Z M370 -107 C337 -178 297 -214 241 -214 C174 -214 132 -157 132 -84 C132 3 195 61 291 89 L278 228 L243 228 L229 104 C114 68 50 3 50 -89 C45 -179 125 -260 236 -255 C320 -255 392 -218 431 -166 L370 -107 L370 -107 Z " />
<glyph glyph-name="Agrave" unicode="&#xc0;" horiz-adv-x="669" d="M279 839 L159 839 L159 832 L360 705 L401 705 L279 839 Z M582 50 L363 655 L325 655 L98 50 L93 45 L24 45 L24 0 L232 0 L232 45 L158 45 L153 50 L217 228 L436 228 L497 50 L492 45 L444 45 L444 0 L645 0 L645 45 L587 45 L582 50 Z M328 539 L330 539 L421 273 L233 273 L328 539 Z " />
<glyph glyph-name="Aacute" unicode="&#xc1;" horiz-adv-x="669" d="M536 840 L416 840 L294 706 L335 706 L536 833 L536 840 Z M582 50 L363 655 L325 655 L98 50 L93 45 L24 45 L24 0 L232 0 L232 45 L158 45 L153 50 L217 228 L436 228 L497 50 L492 45 L444 45 L444 0 L645 0 L645 45 L587 45 L582 50 Z M328 539 L330 539 L421 273 L233 273 L328 539 Z " />
<glyph glyph-name="Acircumflex" unicode="&#xc2;" horiz-adv-x="669" d="M457 706 L498 706 L360 840 L324 840 L186 706 L227 706 L342 774 L457 706 Z M582 50 L363 655 L325 655 L98 50 L93 45 L24 45 L24 0 L232 0 L232 45 L158 45 L153 50 L217 228 L436 228 L497 50 L492 45 L444 45 L444 0 L645 0 L645 45 L587 45 L582 50 Z M328 539 L330 539 L421 273 L233 273 L328 539 Z " />
<glyph glyph-name="Atilde" unicode="&#xc3;" horiz-adv-x="669" d="M276 772 C289 772 308 764 334 749 C360 733 383 725 402 725 C445 725 478 762 491 813 L465 824 C452 795 433 780 410 780 C399 780 383 786 364 798 C324 821 307 827 283 827 C240 827 207 790 195 739 L221 728 C233 757 251 772 276 772 L276 772 Z M582 50 L363 655 L325 655 L98 50 L93 45 L24 45 L24 0 L232 0 L232 45 L158 45 L153 50 L217 228 L436 228 L497 50 L492 45 L444 45 L444 0 L645 0 L645 45 L587 45 L582 50 Z M328 539 L330 539 L421 273 L233 273 L328 539 Z " />
<glyph glyph-name="Adieresis" unicode="&#xc4;" horiz-adv-x="669" d="M253 725 C281 725 307 751 307 779 C307 808 281 834 253 834 C224 834 198 808 198 779 C198 751 224 725 253 725 L253 725 Z M432 725 C460 725 486 751 486 779 C486 808 460 834 432 834 C403 834 377 808 377 779 C377 751 403 725 432 725 L432 725 Z M582 50 L363 655 L325 655 L98 50 L93 45 L24 45 L24 0 L232 0 L232 45 L158 45 L153 50 L217 228 L436 228 L497 50 L492 45 L444 45 L444 0 L645 0 L645 45 L587 45 L582 50 Z M328 539 L330 539 L421 273 L233 273 L328 539 Z " />
<glyph glyph-name="Aring" unicode="&#xc5;" horiz-adv-x="669" d="M337 687 C396 687 439 726 439 782 C438 834 396 870 343 870 C277 872 239 815 243 774 C241 715 300 684 337 687 L337 687 Z M338 843 C371 843 392 812 392 771 C392 732 373 713 344 713 C309 713 289 742 289 786 C289 818 306 843 338 843 L338 843 Z M582 50 L363 655 L325 655 L98 50 L93 45 L24 45 L24 0 L232 0 L232 45 L158 45 L153 50 L217 228 L436 228 L497 50 L492 45 L444 45 L444 0 L645 0 L645 45 L587 45 L582 50 Z M328 539 L330 539 L421 273 L233 273 L328 539 Z " />
<glyph glyph-name="AE" unicode="&#xc6;" horiz-adv-x="855" d="M722 45 L525 45 L525 308 L660 308 L665 303 L665 228 L710 228 L710 433 L665 433 L665 358 L660 353 L525 353 L525 605 L711 605 L777 485 L782 485 L782 650 L297 650 L297 640 L382 590 L99 50 L94 45 L24 45 L24 0 L234 0 L234 45 L159 45 L154 50 L286 308 L445 308 L445 50 L440 45 L365 45 L365 0 L800 0 L810 165 L805 165 L722 45 Z M435 599 L445 599 L445 353 L309 353 L435 599 Z " />
<glyph glyph-name="Ccedilla" unicode="&#xc7;" horiz-adv-x="643" d="M374 -15 C453 -15 533 6 578 35 L578 210 L573 210 L520 85 C481 52 432 35 373 35 C244 35 140 140 140 328 C140 493 230 615 369 615 C425 615 472 596 510 558 L562 463 L567 463 L567 630 C516 653 457 665 389 665 C209 665 50 540 50 319 C50 132 169 3 334 -13 L300 -100 L327 -98 C359 -98 382 -114 382 -142 C382 -172 363 -187 325 -187 C308 -187 289 -182 269 -173 L257 -194 C288 -218 320 -230 353 -230 C412 -230 453 -196 453 -145 C453 -100 420 -67 369 -67 L347 -68 L368 -15 L374 -15 L374 -15 Z " />
<glyph glyph-name="Egrave" unicode="&#xc8;" horiz-adv-x="580" d="M267 839 L147 839 L147 832 L348 705 L389 705 L267 839 Z M447 45 L220 45 L220 322 L385 322 L390 317 L390 242 L435 242 L435 447 L390 447 L390 372 L385 367 L220 367 L220 605 L436 605 L502 485 L507 485 L507 650 L55 650 L55 640 L140 590 L140 50 L135 45 L60 45 L60 0 L525 0 L535 165 L530 165 L447 45 Z " />
<glyph glyph-name="Eacute" unicode="&#xc9;" horiz-adv-x="580" d="M468 840 L348 840 L226 706 L267 706 L468 833 L468 840 Z M447 45 L220 45 L220 322 L385 322 L390 317 L390 242 L435 242 L435 447 L390 447 L390 372 L385 367 L220 367 L220 605 L436 605 L502 485 L507 485 L507 650 L55 650 L55 640 L140 590 L140 50 L135 45 L60 45 L60 0 L525 0 L535 165 L530 165 L447 45 Z " />
<glyph glyph-name="Ecircumflex" unicode="&#xca;" horiz-adv-x="580" d="M416 706 L457 706 L319 840 L283 840 L145 706 L186 706 L301 774 L416 706 Z M447 45 L220 45 L220 322 L385 322 L390 317 L390 242 L435 242 L435 447 L390 447 L390 372 L385 367 L220 367 L220 605 L436 605 L502 485 L507 485 L507 650 L55 650 L55 640 L140 590 L140 50 L135 45 L60 45 L60 0 L525 0 L535 165 L530 165 L447 45 Z " />
<glyph glyph-name="Edieresis" unicode="&#xcb;" horiz-adv-x="580" d="M230 725 C258 725 284 751 284 779 C284 808 258 834 230 834 C201 834 175 808 175 779 C175 751 201 725 230 725 L230 725 Z M409 725 C437 725 463 751 463 779 C463 808 437 834 409 834 C380 834 354 808 354 779 C354 751 380 725 409 725 L409 725 Z M447 45 L220 45 L220 322 L385 322 L390 317 L390 242 L435 242 L435 447 L390 447 L390 372 L385 367 L220 367 L220 605 L436 605 L502 485 L507 485 L507 650 L55 650 L55 640 L140 590 L140 50 L135 45 L60 45 L60 0 L525 0 L535 165 L530 165 L447 45 Z " />
<glyph glyph-name="Igrave" unicode="&#xcc;" horiz-adv-x="360" d="M278 705 L156 839 L36 839 L36 832 L237 705 L278 705 Z M300 0 L300 45 L225 45 L220 50 L220 590 L305 640 L305 650 L55 650 L55 640 L140 590 L140 50 L135 45 L60 45 L60 0 L300 0 Z " />
<glyph glyph-name="Iacute" unicode="&#xcd;" horiz-adv-x="360" d="M121 706 L322 833 L322 840 L202 840 L80 706 L121 706 Z M300 0 L300 45 L225 45 L220 50 L220 590 L305 640 L305 650 L55 650 L55 640 L140 590 L140 50 L135 45 L60 45 L60 0 L300 0 Z " />
<glyph glyph-name="Icircumflex" unicode="&#xce;" horiz-adv-x="360" d="M66 706 L181 774 L296 706 L337 706 L199 840 L163 840 L25 706 L66 706 Z M300 0 L300 45 L225 45 L220 50 L220 590 L305 640 L305 650 L55 650 L55 640 L140 590 L140 50 L135 45 L60 45 L60 0 L300 0 Z " />
<glyph glyph-name="Idieresis" unicode="&#xcf;" horiz-adv-x="360" d="M91 725 C119 725 145 751 145 779 C145 808 119 834 91 834 C62 834 36 808 36 779 C36 751 62 725 91 725 L91 725 Z M270 725 C298 725 324 751 324 779 C324 808 298 834 270 834 C241 834 215 808 215 779 C215 751 241 725 270 725 L270 725 Z M300 0 L300 45 L225 45 L220 50 L220 590 L305 640 L305 650 L55 650 L55 640 L140 590 L140 50 L135 45 L60 45 L60 0 L300 0 Z " />
<glyph glyph-name="Eth" unicode="&#xd0;" horiz-adv-x="715" d="M55 650 L55 640 L140 590 L140 365 L45 365 L45 320 L140 320 L140 50 L135 45 L60 45 L60 0 L292 0 C535 0 665 123 665 344 C665 548 543 650 299 650 L55 650 Z M220 45 L220 320 L348 320 L348 365 L220 365 L220 605 L280 605 C480 605 580 515 580 335 C580 142 477 45 289 45 L220 45 Z " />
<glyph glyph-name="Ntilde" unicode="&#xd1;" horiz-adv-x="772" d="M332 772 C345 772 364 764 390 749 C416 733 439 725 458 725 C501 725 534 762 547 813 L521 824 C508 795 489 780 466 780 C455 780 439 786 420 798 C380 821 363 827 339 827 C296 827 263 790 251 739 L277 728 C289 757 307 772 332 772 L332 772 Z M497 640 L582 590 L582 157 L224 650 L55 650 L55 640 L140 590 L140 50 L135 45 L60 45 L60 0 L275 0 L275 45 L200 45 L195 50 L195 553 L598 0 L637 0 L637 590 L722 640 L722 650 L497 650 L497 640 Z " />
<glyph glyph-name="Ograve" unicode="&#xd2;" horiz-adv-x="734" d="M501 705 L379 839 L259 839 L259 832 L460 705 L501 705 Z M360 -15 C558 -15 684 127 684 338 C684 534 562 665 379 665 C195 665 50 529 50 321 C50 108 182 -15 360 -15 L360 -15 Z M369 33 C232 33 137 144 137 335 C137 509 234 617 369 617 C417 617 473 599 513 559 C569 501 596 420 596 320 C596 130 503 33 369 33 L369 33 Z " />
<glyph glyph-name="Oacute" unicode="&#xd3;" horiz-adv-x="734" d="M327 706 L528 833 L528 840 L408 840 L286 706 L327 706 Z M360 -15 C558 -15 684 127 684 338 C684 534 562 665 379 665 C195 665 50 529 50 321 C50 108 182 -15 360 -15 L360 -15 Z M369 33 C232 33 137 144 137 335 C137 509 234 617 369 617 C417 617 473 599 513 559 C569 501 596 420 596 320 C596 130 503 33 369 33 L369 33 Z " />
<glyph glyph-name="Ocircumflex" unicode="&#xd4;" horiz-adv-x="734" d="M256 706 L371 774 L486 706 L527 706 L389 840 L353 840 L215 706 L256 706 Z M360 -15 C558 -15 684 127 684 338 C684 534 562 665 379 665 C195 665 50 529 50 321 C50 108 182 -15 360 -15 L360 -15 Z M369 33 C232 33 137 144 137 335 C137 509 234 617 369 617 C417 617 473 599 513 559 C569 501 596 420 596 320 C596 130 503 33 369 33 L369 33 Z " />
<glyph glyph-name="Otilde" unicode="&#xd5;" horiz-adv-x="734" d="M438 725 C481 725 514 762 527 813 L501 824 C488 795 469 780 446 780 C435 780 419 786 400 798 C360 821 343 827 319 827 C276 827 243 790 231 739 L257 728 C269 757 287 772 312 772 C325 772 344 764 370 749 C396 733 419 725 438 725 L438 725 Z M360 -15 C558 -15 684 127 684 338 C684 534 562 665 379 665 C195 665 50 529 50 321 C50 108 182 -15 360 -15 L360 -15 Z M369 33 C232 33 137 144 137 335 C137 509 234 617 369 617 C417 617 473 599 513 559 C569 501 596 420 596 320 C596 130 503 33 369 33 L369 33 Z " />
<glyph glyph-name="Odieresis" unicode="&#xd6;" horiz-adv-x="734" d="M281 725 C309 725 335 751 335 779 C335 808 309 834 281 834 C252 834 226 808 226 779 C226 751 252 725 281 725 L281 725 Z M460 725 C488 725 514 751 514 779 C514 808 488 834 460 834 C431 834 405 808 405 779 C405 751 431 725 460 725 L460 725 Z M360 -15 C558 -15 684 127 684 338 C684 534 562 665 379 665 C195 665 50 529 50 321 C50 108 182 -15 360 -15 L360 -15 Z M369 33 C232 33 137 144 137 335 C137 509 234 617 369 617 C417 617 473 599 513 559 C569 501 596 420 596 320 C596 130 503 33 369 33 L369 33 Z " />
<glyph glyph-name="multiply" unicode="&#xd7;" horiz-adv-x="560" d="M423 390 L280 247 L136 390 L97 351 L241 208 L97 64 L136 25 L280 169 L423 25 L462 64 L319 208 L462 351 L423 390 Z " />
<glyph glyph-name="Oslash" unicode="&#xd8;" horiz-adv-x="728" d="M616 650 L571 599 C518 643 453 665 376 665 C194 665 50 529 50 321 C50 225 77 144 124 88 L47 0 L109 0 L156 54 C208 10 280 -15 357 -15 C552 -15 678 127 678 338 C678 429 652 509 605 565 L679 650 L616 650 Z M134 335 C134 511 231 620 366 620 C429 620 485 593 525 546 L175 146 C148 197 134 260 134 335 L134 335 Z M593 320 C593 129 500 30 366 30 C301 30 241 57 201 105 L552 505 C579 454 593 392 593 320 L593 320 Z " />
<glyph glyph-name="Ugrave" unicode="&#xd9;" horiz-adv-x="750" d="M456 705 L334 839 L214 839 L214 832 L415 705 L456 705 Z M379 -15 C540 -15 625 80 625 260 L625 590 L710 640 L710 650 L480 650 L480 640 L570 590 L570 267 C570 110 516 35 385 35 C261 35 208 108 208 267 L208 590 L298 640 L298 650 L40 650 L40 640 L125 590 L125 261 C125 64 199 -15 379 -15 L379 -15 Z " />
<glyph glyph-name="Uacute" unicode="&#xda;" horiz-adv-x="750" d="M385 706 L586 833 L586 840 L466 840 L344 706 L385 706 Z M379 -15 C540 -15 625 80 625 260 L625 590 L710 640 L710 650 L480 650 L480 640 L570 590 L570 267 C570 110 516 35 385 35 C261 35 208 108 208 267 L208 590 L298 640 L298 650 L40 650 L40 640 L125 590 L125 261 C125 64 199 -15 379 -15 L379 -15 Z " />
<glyph glyph-name="Ucircumflex" unicode="&#xdb;" horiz-adv-x="750" d="M276 706 L391 774 L506 706 L547 706 L409 840 L373 840 L235 706 L276 706 Z M379 -15 C540 -15 625 80 625 260 L625 590 L710 640 L710 650 L480 650 L480 640 L570 590 L570 267 C570 110 516 35 385 35 C261 35 208 108 208 267 L208 590 L298 640 L298 650 L40 650 L40 640 L125 590 L125 261 C125 64 199 -15 379 -15 L379 -15 Z " />
<glyph glyph-name="Udieresis" unicode="&#xdc;" horiz-adv-x="750" d="M311 725 C339 725 365 751 365 779 C365 808 339 834 311 834 C282 834 256 808 256 779 C256 751 282 725 311 725 L311 725 Z M490 725 C518 725 544 751 544 779 C544 808 518 834 490 834 C461 834 435 808 435 779 C435 751 461 725 490 725 L490 725 Z M379 -15 C540 -15 625 80 625 260 L625 590 L710 640 L710 650 L480 650 L480 640 L570 590 L570 267 C570 110 516 35 385 35 C261 35 208 108 208 267 L208 590 L298 640 L298 650 L40 650 L40 640 L125 590 L125 261 C125 64 199 -15 379 -15 L379 -15 Z " />
<glyph glyph-name="Yacute" unicode="&#xdd;" horiz-adv-x="644" d="M331 706 L532 833 L532 840 L412 840 L290 706 L331 706 Z M442 0 L442 45 L367 45 L362 50 L362 259 L549 590 L634 640 L634 650 L406 650 L406 640 L496 590 L341 305 L339 305 L186 590 L276 640 L276 650 L10 650 L10 640 L95 591 L282 255 L282 50 L277 45 L202 45 L202 0 L442 0 Z " />
<glyph glyph-name="Thorn" unicode="&#xde;" horiz-adv-x="563" d="M269 134 C415 134 533 211 533 348 C533 467 446 528 293 528 L220 528 L220 590 L305 640 L305 650 L55 650 L55 640 L140 590 L140 50 L135 45 L60 45 L60 0 L300 0 L300 45 L225 45 L220 50 L220 134 L269 134 L269 134 Z M279 482 C386 482 448 433 448 341 C448 237 379 180 268 180 L220 180 L220 482 L279 482 L279 482 Z " />
<glyph glyph-name="germandbls" unicode="&#xdf;" horiz-adv-x="540" d="M375 -10 C471 -10 525 35 525 110 C525 155 504 179 478 204 C468 213 446 229 412 252 C343 298 332 322 332 351 C332 358 334 377 350 395 C357 404 373 418 398 439 C447 480 461 512 461 548 C459 660 357 722 284 717 C153 717 88 626 88 444 L88 409 L83 404 L23 404 L23 359 L83 359 L88 353 L88 50 L83 45 L23 45 L23 0 L158 0 L158 446 C158 603 198 673 277 673 C342 673 386 621 386 537 C386 521 384 507 379 495 C370 470 361 461 325 426 C271 375 277 357 273 326 C273 290 287 261 309 237 C316 229 325 221 335 213 C345 205 364 192 393 173 C450 136 463 113 463 86 C463 51 436 28 389 28 C364 28 335 39 314 64 L264 119 L259 119 L259 14 C298 -2 337 -10 375 -10 L375 -10 Z " />
<glyph glyph-name="agrave" unicode="&#xe0;" horiz-adv-x="431" d="M172 664 L72 664 L72 656 L229 480 L264 480 L172 664 Z M337 50 L337 289 C341 384 259 423 203 420 C142 420 94 397 47 352 L60 328 C99 353 137 366 176 366 C245 366 267 330 267 249 L267 218 C112 211 35 167 35 86 C33 21 94 -13 135 -10 C173 -10 217 7 267 41 L267 0 L402 0 L402 45 L342 45 L337 50 Z M171 42 C132 42 106 62 106 99 C106 152 151 178 267 186 L267 59 C235 48 203 42 171 42 L171 42 Z " />
<glyph glyph-name="aacute" unicode="&#xe1;" horiz-adv-x="435" d="M349 664 L249 664 L157 480 L192 480 L349 656 L349 664 Z M342 45 L337 50 L337 289 C341 384 259 423 203 420 C142 420 94 397 47 352 L60 328 L64 330 L64 331 C99 354 136 365 173 366 C245 365 267 330 267 251 L267 249 L267 218 C112 211 35 167 35 86 C33 21 94 -13 135 -10 C173 -10 217 7 267 41 L267 0 L406 0 L406 45 L342 45 Z M171 42 C132 42 106 62 106 99 C106 152 151 178 267 186 L267 59 C235 48 203 42 171 42 L171 42 Z " />
<glyph glyph-name="acircumflex" unicode="&#xe2;" horiz-adv-x="431" d="M293 480 L337 480 L215 664 L171 664 L49 480 L91 480 L193 581 L293 480 Z M337 50 L337 289 C341 384 259 423 203 420 C142 420 94 397 47 352 L60 328 C99 353 137 366 176 366 C245 366 267 330 267 249 L267 218 C112 211 35 167 35 86 C33 21 94 -13 135 -10 C173 -10 217 7 267 41 L267 0 L402 0 L402 45 L342 45 L337 50 Z M171 42 C132 42 106 62 106 99 C106 152 151 178 267 186 L267 59 C235 48 203 42 171 42 L171 42 Z " />
<glyph glyph-name="atilde" unicode="&#xe3;" horiz-adv-x="431" d="M126 568 C130 568 136 567 145 565 C153 563 169 555 192 541 C215 526 235 519 253 519 C294 519 327 555 340 607 L314 618 C301 589 286 574 267 574 C256 574 240 580 220 592 C180 615 163 621 139 621 C96 621 63 584 51 533 L77 522 C90 553 106 568 126 568 L126 568 Z M337 50 L337 289 C341 384 259 423 203 420 C142 420 94 397 47 352 L60 328 C99 353 137 366 176 366 C245 366 267 330 267 249 L267 218 C112 211 35 167 35 86 C33 21 94 -13 135 -10 C173 -10 217 7 267 41 L267 0 L402 0 L402 45 L342 45 L337 50 Z M171 42 C132 42 106 62 106 99 C106 152 151 178 267 186 L267 59 C235 48 203 42 171 42 L171 42 Z " />
<glyph glyph-name="adieresis" unicode="&#xe4;" horiz-adv-x="431" d="M109 524 C137 524 163 550 163 578 C163 607 137 633 109 633 C80 633 54 607 54 578 C54 550 80 524 109 524 L109 524 Z M294 524 C322 524 348 550 348 578 C348 607 322 633 294 633 C265 633 239 607 239 578 C239 550 265 524 294 524 L294 524 Z M337 50 L337 289 C341 384 259 423 203 420 C142 420 94 397 47 352 L60 328 C99 353 137 366 176 366 C245 366 267 330 267 249 L267 218 C112 211 35 167 35 86 C33 21 94 -13 135 -10 C173 -10 217 7 267 41 L267 0 L402 0 L402 45 L342 45 L337 50 Z M171 42 C132 42 106 62 106 99 C106 152 151 178 267 186 L267 59 C235 48 203 42 171 42 L171 42 Z " />
<glyph glyph-name="aring" unicode="&#xe5;" horiz-adv-x="431" d="M194 479 C263 477 303 535 299 574 C298 626 255 662 200 662 C133 664 93 607 97 566 C96 507 156 476 194 479 L194 479 Z M195 636 C227 636 246 606 246 563 C246 524 229 504 201 504 C168 504 149 534 149 578 C149 611 164 636 195 636 L195 636 Z M337 50 L337 289 C341 384 259 423 203 420 C142 420 94 397 47 352 L60 328 C99 353 137 366 176 366 C245 366 267 330 267 249 L267 218 C112 211 35 167 35 86 C33 21 94 -13 135 -10 C173 -10 217 7 267 41 L267 0 L402 0 L402 45 L342 45 L337 50 Z M171 42 C132 42 106 62 106 99 C106 152 151 178 267 186 L267 59 C235 48 203 42 171 42 L171 42 Z " />
<glyph glyph-name="ae" unicode="&#xe6;" horiz-adv-x="660" d="M625 239 C625 352 565 420 467 420 C418 420 363 397 326 354 C306 397 262 420 206 420 C145 420 97 397 50 352 L63 328 C102 353 138 366 173 366 C245 366 270 330 270 249 L270 238 C98 229 35 185 35 94 C33 26 100 -14 145 -10 C198 -10 251 9 306 69 C341 20 397 -10 465 -10 C522 -10 583 12 620 48 L609 69 C565 46 521 44 506 44 C405 44 354 101 348 205 L623 205 L625 239 L625 239 Z M460 379 C516 379 545 333 547 241 L347 241 C346 314 397 382 460 379 L460 379 Z M176 40 C131 40 105 64 105 109 C105 172 150 198 270 206 L270 194 C270 159 277 128 290 99 C261 64 209 40 176 40 L176 40 Z " />
<glyph glyph-name="ccedilla" unicode="&#xe7;" horiz-adv-x="409" d="M190 -68 L214 -10 L229 -10 C285 -10 342 12 379 48 L368 69 C324 46 280 44 265 44 C176 44 117 104 117 225 C117 325 164 379 229 379 C255 379 278 371 298 355 L357 280 L362 280 L362 398 C331 413 294 420 252 420 C107 420 36 296 40 193 C40 149 54 92 83 56 C111 20 147 3 180 -5 L143 -100 L170 -98 C202 -98 225 -114 225 -142 C225 -172 206 -187 168 -187 C151 -187 132 -182 112 -173 L100 -194 C131 -218 163 -230 196 -230 C255 -230 296 -196 296 -145 C296 -100 263 -67 212 -67 L190 -68 Z " />
<glyph glyph-name="egrave" unicode="&#xe8;" horiz-adv-x="430" d="M218 664 L118 664 L118 656 L275 480 L310 480 L218 664 Z M395 257 C395 357 335 421 237 421 C192 421 133 399 93 351 C53 303 40 248 40 196 C41 51 148 -14 235 -10 C292 -10 353 12 390 48 L379 69 C335 46 291 44 276 44 C180 44 118 99 117 223 L393 223 L395 257 L395 257 Z M230 380 C295 380 315 320 317 259 L119 259 C128 342 177 380 230 380 L230 380 Z " />
<glyph glyph-name="eacute" unicode="&#xe9;" horiz-adv-x="430" d="M377 664 L277 664 L185 480 L220 480 L377 656 L377 664 Z M395 257 C395 357 335 421 237 421 C192 421 133 399 93 351 C53 303 40 248 40 196 C41 51 148 -14 235 -10 C292 -10 353 12 390 48 L379 69 C335 46 291 44 276 44 C180 44 118 99 117 223 L393 223 L395 257 L395 257 Z M230 380 C295 380 315 320 317 259 L119 259 C128 342 177 380 230 380 L230 380 Z " />
<glyph glyph-name="ecircumflex" unicode="&#xea;" horiz-adv-x="430" d="M333 480 L377 480 L255 664 L211 664 L89 480 L131 480 L233 581 L333 480 Z M395 257 C395 357 335 421 237 421 C192 421 133 399 93 351 C53 303 40 248 40 196 C41 51 148 -14 235 -10 C292 -10 353 12 390 48 L379 69 C335 46 291 44 276 44 C180 44 118 99 117 223 L393 223 L395 257 L395 257 Z M230 380 C295 380 315 320 317 259 L119 259 C128 342 177 380 230 380 L230 380 Z " />
<glyph glyph-name="edieresis" unicode="&#xeb;" horiz-adv-x="430" d="M140 524 C168 524 194 550 194 578 C194 607 168 633 140 633 C111 633 85 607 85 578 C85 550 111 524 140 524 L140 524 Z M325 524 C353 524 379 550 379 578 C379 607 353 633 325 633 C296 633 270 607 270 578 C270 550 296 524 325 524 L325 524 Z M395 257 C395 357 335 421 237 421 C192 421 133 399 93 351 C53 303 40 248 40 196 C41 51 148 -14 235 -10 C292 -10 353 12 390 48 L379 69 C335 46 291 44 276 44 C180 44 118 99 117 223 L393 223 L395 257 L395 257 Z M230 380 C295 380 315 320 317 259 L119 259 C128 342 177 380 230 380 L230 380 Z " />
<glyph glyph-name="igrave" unicode="&#xec;" horiz-adv-x="263" d="M164 480 L72 664 L-28 664 L-28 656 L129 480 L164 480 Z M234 0 L234 45 L174 45 L169 50 L169 417 L163 420 L32 359 L32 354 L99 322 L99 50 L94 45 L34 45 L34 0 L234 0 Z " />
<glyph glyph-name="iacute" unicode="&#xed;" horiz-adv-x="263" d="M96 480 L253 656 L253 664 L153 664 L61 480 L96 480 Z M234 0 L234 45 L174 45 L169 50 L169 417 L163 420 L32 359 L32 354 L99 322 L99 50 L94 45 L34 45 L34 0 L234 0 Z " />
<glyph glyph-name="icircumflex" unicode="&#xee;" horiz-adv-x="263" d="M271 480 L149 664 L105 664 L-17 480 L25 480 L127 581 L227 480 L271 480 Z M169 417 L163 420 L32 359 L32 354 L99 322 L99 50 L94 45 L34 45 L34 0 L234 0 L234 45 L174 45 L169 50 L169 417 Z " />
<glyph glyph-name="idieresis" unicode="&#xef;" horiz-adv-x="263" d="M44 524 C72 524 98 550 98 578 C98 607 72 633 44 633 C15 633 -11 607 -11 578 C-11 550 15 524 44 524 L44 524 Z M213 524 C241 524 267 550 267 578 C267 607 241 633 213 633 C184 633 158 607 158 578 C158 550 184 524 213 524 L213 524 Z M234 0 L234 45 L174 45 L169 50 L169 417 L163 420 L32 359 L32 354 L99 322 L99 50 L94 45 L34 45 L34 0 L234 0 Z " />
<glyph glyph-name="eth" unicode="&#xf0;" horiz-adv-x="498" d="M416 650 L416 701 L318 647 C261 694 189 717 101 717 L89 684 C157 679 214 656 260 615 L189 576 L189 526 L291 582 C330 532 355 464 367 377 C329 406 285 420 236 420 C122 420 40 332 40 209 C40 142 59 88 96 47 C133 6 182 -15 244 -15 C380 -15 457 95 458 287 C458 310 456 340 452 377 C447 413 437 453 421 498 C405 542 382 581 351 615 L416 650 Z M253 25 C215 25 183 42 158 77 C132 112 119 155 119 208 C119 305 170 363 250 363 C293 363 333 355 371 339 C373 311 374 284 374 259 C374 111 328 25 253 25 L253 25 Z " />
<glyph glyph-name="ntilde" unicode="&#xf1;" horiz-adv-x="536" d="M202 570 C206 570 212 569 221 567 C229 565 245 557 268 543 C291 528 311 521 329 521 C370 521 403 557 416 609 L390 620 C377 591 362 576 343 576 C332 576 316 582 296 594 C256 617 239 623 215 623 C172 623 139 586 127 535 L153 524 C166 555 182 570 202 570 L202 570 Z M442 50 L442 303 C442 379 400 420 312 420 C277 420 228 400 167 361 L159 418 L153 421 L32 359 L32 354 L99 322 L99 50 L94 45 L34 45 L34 0 L239 0 L239 45 L174 45 L169 50 L169 342 C214 351 251 356 280 356 C347 356 372 336 372 240 L372 50 L367 45 L302 45 L302 0 L507 0 L507 45 L447 45 L442 50 Z " />
<glyph glyph-name="ograve" unicode="&#xf2;" horiz-adv-x="490" d="M307 480 L215 664 L115 664 L115 656 L272 480 L307 480 Z M241 -10 C368 -10 450 95 450 213 C450 341 364 420 251 420 C121 420 40 316 40 197 C40 134 63 72 108 36 C152 0 198 -10 241 -10 L241 -10 Z M254 30 C215 30 182 49 156 87 C130 124 117 170 117 223 C117 330 171 380 235 380 C274 380 306 362 333 325 C359 288 372 243 372 188 C372 85 326 30 254 30 L254 30 Z " />
<glyph glyph-name="oacute" unicode="&#xf3;" horiz-adv-x="490" d="M213 480 L370 656 L370 664 L270 664 L178 480 L213 480 Z M241 -10 C368 -10 450 95 450 213 C450 341 364 420 251 420 C121 420 40 316 40 197 C40 134 63 72 108 36 C152 0 198 -10 241 -10 L241 -10 Z M254 30 C215 30 182 49 156 87 C130 124 117 170 117 223 C117 330 171 380 235 380 C274 380 306 362 333 325 C359 288 372 243 372 188 C372 85 326 30 254 30 L254 30 Z " />
<glyph glyph-name="ocircumflex" unicode="&#xf4;" horiz-adv-x="490" d="M346 480 L390 480 L268 664 L224 664 L102 480 L144 480 L246 581 L346 480 Z M251 420 C121 420 40 316 40 197 C40 134 63 72 108 36 C152 0 198 -10 241 -10 C368 -10 450 95 450 213 C450 341 364 420 251 420 L251 420 Z M254 30 C215 30 182 49 156 87 C130 124 117 170 117 223 C117 330 171 380 235 380 C274 380 306 362 333 325 C359 288 372 243 372 188 C372 85 326 30 254 30 L254 30 Z " />
<glyph glyph-name="otilde" unicode="&#xf5;" horiz-adv-x="490" d="M304 519 C345 519 378 555 391 607 L365 618 C352 589 337 574 318 574 C307 574 291 580 271 592 C231 615 214 621 190 621 C147 621 114 584 102 533 L128 522 C141 553 157 568 177 568 C181 568 187 567 196 565 C204 563 220 555 243 541 C266 526 286 519 304 519 L304 519 Z M241 -10 C368 -10 450 95 450 213 C450 341 364 420 251 420 C121 420 40 316 40 197 C40 134 63 72 108 36 C152 0 198 -10 241 -10 L241 -10 Z M254 30 C215 30 182 49 156 87 C130 124 117 170 117 223 C117 330 171 380 235 380 C274 380 306 362 333 325 C359 288 372 243 372 188 C372 85 326 30 254 30 L254 30 Z " />
<glyph glyph-name="odieresis" unicode="&#xf6;" horiz-adv-x="490" d="M158 524 C186 524 212 550 212 578 C212 607 186 633 158 633 C129 633 103 607 103 578 C103 550 129 524 158 524 L158 524 Z M343 524 C371 524 397 550 397 578 C397 607 371 633 343 633 C314 633 288 607 288 578 C288 550 314 524 343 524 L343 524 Z M241 -10 C368 -10 450 95 450 213 C450 341 364 420 251 420 C121 420 40 316 40 197 C40 134 63 72 108 36 C152 0 198 -10 241 -10 L241 -10 Z M254 30 C215 30 182 49 156 87 C130 124 117 170 117 223 C117 330 171 380 235 380 C274 380 306 362 333 325 C359 288 372 243 372 188 C372 85 326 30 254 30 L254 30 Z " />
<glyph glyph-name="divide" unicode="&#xf7;" horiz-adv-x="560" d="M285 305 C317 305 344 331 344 363 C344 395 317 422 285 422 C253 422 227 395 227 363 C227 331 253 305 285 305 L285 305 Z M480 179 L480 231 L80 231 L80 179 L480 179 Z M285 -15 C317 -15 344 11 344 43 C344 75 317 102 285 102 C253 102 227 75 227 43 C227 11 253 -15 285 -15 L285 -15 Z " />
<glyph glyph-name="oslash" unicode="&#xf8;" horiz-adv-x="490" d="M401 430 L365 388 C334 408 291 420 251 420 C121 420 40 316 40 197 C40 140 55 93 86 57 L22 -20 L83 -20 L121 25 C152 4 198 -10 241 -10 C368 -10 450 95 450 213 C450 272 434 320 401 357 L462 430 L401 430 Z M117 223 C117 330 171 380 235 380 C269 380 298 366 323 337 L138 118 C124 150 117 185 117 223 L117 223 Z M372 188 C372 85 326 30 254 30 C219 30 187 47 164 76 L350 296 C365 265 372 229 372 188 L372 188 Z " />
<glyph glyph-name="ugrave" unicode="&#xf9;" horiz-adv-x="521" d="M213 664 L113 664 L113 656 L270 480 L305 480 L213 664 Z M425 50 L425 417 L419 420 L288 357 L288 352 L355 320 L355 68 C313 59 278 54 249 54 C181 54 162 83 162 170 L162 416 L156 419 L25 356 L25 351 L92 319 L92 107 C92 29 134 -10 217 -10 C252 -10 294 9 355 48 L355 0 L490 0 L490 45 L430 45 L425 50 Z " />
<glyph glyph-name="uacute" unicode="&#xfa;" horiz-adv-x="521" d="M401 664 L301 664 L209 480 L244 480 L401 656 L401 664 Z M425 50 L425 417 L419 420 L288 357 L288 352 L355 320 L355 68 C313 59 278 54 249 54 C181 54 162 83 162 170 L162 416 L156 419 L25 356 L25 351 L92 319 L92 107 C92 29 134 -10 217 -10 C252 -10 294 9 355 48 L355 0 L490 0 L490 45 L430 45 L425 50 Z " />
<glyph glyph-name="ucircumflex" unicode="&#xfb;" horiz-adv-x="521" d="M346 480 L390 480 L268 664 L224 664 L102 480 L144 480 L246 581 L346 480 Z M425 50 L425 417 L419 420 L288 357 L288 352 L355 320 L355 68 C313 59 278 54 249 54 C181 54 162 83 162 170 L162 416 L156 419 L25 356 L25 351 L92 319 L92 107 C92 29 134 -10 217 -10 C252 -10 294 9 355 48 L355 0 L490 0 L490 45 L430 45 L425 50 Z " />
<glyph glyph-name="udieresis" unicode="&#xfc;" horiz-adv-x="521" d="M162 524 C190 524 216 550 216 578 C216 607 190 633 162 633 C133 633 107 607 107 578 C107 550 133 524 162 524 L162 524 Z M347 524 C375 524 401 550 401 578 C401 607 375 633 347 633 C318 633 292 607 292 578 C292 550 318 524 347 524 L347 524 Z M425 50 L425 417 L419 420 L288 357 L288 352 L355 320 L355 68 C313 59 278 54 249 54 C181 54 162 83 162 170 L162 416 L156 419 L25 356 L25 351 L92 319 L92 107 C92 29 134 -10 217 -10 C252 -10 294 9 355 48 L355 0 L490 0 L490 45 L430 45 L425 50 Z " />
<glyph glyph-name="yacute" unicode="&#xfd;" horiz-adv-x="467" d="M415 664 L315 664 L223 480 L258 480 L415 656 L415 664 Z M299 399 L370 354 L254 57 L131 353 L196 401 L196 404 L-5 404 L-5 399 L52 354 L220 -36 L75 -213 L161 -250 L257 -27 L418 354 L472 401 L472 404 L299 404 L299 399 Z " />
<glyph glyph-name="thorn" unicode="&#xfe;" horiz-adv-x="518" d="M317 420 C304 420 288 418 267 413 C246 408 214 391 169 362 L169 717 L163 720 L32 657 L32 652 L99 620 L99 -180 L94 -185 L34 -185 L34 -230 L249 -230 L249 -185 L174 -185 L169 -180 L169 14 C198 -1 241 -10 273 -10 C308 -10 343 0 376 20 C442 60 478 142 478 222 C477 359 386 424 317 420 L317 420 Z M283 30 C231 30 188 53 169 92 L169 345 C192 352 240 356 276 356 C368 359 403 262 400 202 C400 95 361 30 283 30 L283 30 Z " />
<glyph glyph-name="ydieresis" unicode="&#xff;" horiz-adv-x="467" d="M164 524 C192 524 218 550 218 578 C218 607 192 633 164 633 C135 633 109 607 109 578 C109 550 135 524 164 524 L164 524 Z M349 524 C377 524 403 550 403 578 C403 607 377 633 349 633 C320 633 294 607 294 578 C294 550 320 524 349 524 L349 524 Z M299 399 L370 354 L254 57 L131 353 L196 401 L196 404 L-5 404 L-5 399 L52 354 L220 -36 L75 -213 L161 -250 L257 -27 L418 354 L472 401 L472 404 L299 404 L299 399 Z " />
<glyph glyph-name="Amacron" unicode="&#x100;" horiz-adv-x="669" d="M215 792 L215 740 L479 740 L479 792 L215 792 Z M582 50 L363 655 L325 655 L98 50 L93 45 L24 45 L24 0 L232 0 L232 45 L158 45 L153 50 L217 228 L436 228 L497 50 L492 45 L444 45 L444 0 L645 0 L645 45 L587 45 L582 50 Z M328 539 L330 539 L421 273 L233 273 L328 539 Z " />
<glyph glyph-name="amacron" unicode="&#x101;" horiz-adv-x="431" d="M69 597 L69 545 L333 545 L333 597 L69 597 Z M337 50 L337 289 C341 384 259 423 203 420 C142 420 94 397 47 352 L60 328 C99 353 137 366 176 366 C245 366 267 330 267 249 L267 218 C112 211 35 167 35 86 C33 21 94 -13 135 -10 C173 -10 217 7 267 41 L267 0 L402 0 L402 45 L342 45 L337 50 Z M171 42 C132 42 106 62 106 99 C106 152 151 178 267 186 L267 59 C235 48 203 42 171 42 L171 42 Z " />
<glyph glyph-name="Abreve" unicode="&#x102;" horiz-adv-x="669" d="M351 714 C453 711 485 799 482 847 L449 847 C445 796 412 770 351 770 C292 770 257 796 253 847 L220 847 C216 764 284 708 351 714 L351 714 Z M582 50 L363 655 L325 655 L98 50 L93 45 L24 45 L24 0 L232 0 L232 45 L158 45 L153 50 L217 228 L436 228 L497 50 L492 45 L444 45 L444 0 L645 0 L645 45 L587 45 L582 50 Z M328 539 L330 539 L421 273 L233 273 L328 539 Z " />
<glyph glyph-name="abreve" unicode="&#x103;" horiz-adv-x="431" d="M199 490 C282 490 330 555 330 643 L295 643 C290 586 256 551 199 551 C142 551 108 586 103 643 L68 643 C68 555 116 490 199 490 L199 490 Z M337 50 L337 289 C341 384 259 423 203 420 C142 420 94 397 47 352 L60 328 C99 353 137 366 176 366 C245 366 267 330 267 249 L267 218 C112 211 35 167 35 86 C33 21 94 -13 135 -10 C173 -10 217 7 267 41 L267 0 L402 0 L402 45 L342 45 L337 50 Z M171 42 C132 42 106 62 106 99 C106 152 151 178 267 186 L267 59 C235 48 203 42 171 42 L171 42 Z " />
<glyph glyph-name="Aogonek" unicode="&#x104;" horiz-adv-x="669" d="M582 50 L363 655 L325 655 L98 50 L93 45 L24 45 L24 0 L232 0 L232 45 L158 45 L153 50 L217 228 L436 228 L497 50 L492 45 L444 45 L444 0 L528 0 C456 -43 415 -124 419 -158 C419 -194 444 -230 491 -230 C527 -230 554 -212 594 -181 L583 -160 C566 -169 551 -173 538 -173 C509 -173 491 -156 491 -121 C490 -57 561 6 613 0 L645 0 L645 45 L587 45 L582 50 Z M328 539 L330 539 L421 273 L233 273 L328 539 Z " />
<glyph glyph-name="aogonek" unicode="&#x105;" horiz-adv-x="431" d="M402 45 L342 45 L337 50 L337 289 C341 384 259 423 203 420 C142 420 94 397 47 352 L60 328 C99 353 135 366 169 366 C248 366 267 329 267 249 L267 218 C112 211 35 167 35 86 C33 21 94 -13 135 -10 C173 -10 217 7 267 41 L267 0 L317 0 C245 -43 204 -124 208 -158 C208 -194 233 -230 280 -230 C316 -230 343 -212 383 -181 L372 -160 C355 -169 339 -173 326 -173 C298 -173 280 -156 280 -121 C279 -57 350 6 402 0 L402 45 Z M171 42 C132 42 106 62 106 99 C106 152 151 178 267 186 L267 59 C235 48 203 42 171 42 L171 42 Z " />
<glyph glyph-name="Cacute" unicode="&#x106;" horiz-adv-x="643" d="M346 706 L547 833 L547 840 L427 840 L305 706 L346 706 Z M374 -15 C453 -15 533 6 578 35 L578 210 L573 210 L520 85 C481 52 432 35 373 35 C244 35 140 140 140 328 C140 493 230 615 369 615 C425 615 472 596 510 558 L562 463 L567 463 L567 630 C516 653 457 665 389 665 C209 665 50 540 50 319 C50 116 190 -15 374 -15 L374 -15 Z " />
<glyph glyph-name="cacute" unicode="&#x107;" horiz-adv-x="409" d="M214 480 L371 656 L371 664 L271 664 L179 480 L214 480 Z M229 -10 C285 -10 342 12 379 48 L368 69 C324 46 280 44 265 44 C176 44 117 104 117 225 C117 325 164 379 229 379 C255 379 278 371 298 355 L357 280 L362 280 L362 398 C331 413 294 420 252 420 C107 420 36 296 40 193 C40 67 118 -10 229 -10 L229 -10 Z " />
<glyph glyph-name="Ccircumflex" unicode="&#x108;" horiz-adv-x="643" d="M263 706 L378 774 L493 706 L534 706 L396 840 L360 840 L222 706 L263 706 Z M374 -15 C453 -15 533 6 578 35 L578 210 L573 210 L520 85 C481 52 432 35 373 35 C244 35 140 140 140 328 C140 493 230 615 369 615 C425 615 472 596 510 558 L562 463 L567 463 L567 630 C516 653 457 665 389 665 C209 665 50 540 50 319 C50 116 190 -15 374 -15 L374 -15 Z " />
<glyph glyph-name="ccircumflex" unicode="&#x109;" horiz-adv-x="409" d="M327 480 L371 480 L249 664 L205 664 L83 480 L125 480 L227 581 L327 480 Z M368 69 C324 46 280 44 265 44 C176 44 117 104 117 225 C117 325 164 379 229 379 C255 379 278 371 298 355 L357 280 L362 280 L362 398 C331 413 294 420 252 420 C107 420 36 296 40 193 C40 67 118 -10 229 -10 C285 -10 342 12 379 48 L368 69 L368 69 Z " />
<glyph glyph-name="Cdotaccent" unicode="&#x10a;" horiz-adv-x="643" d="M382 725 C410 725 436 751 436 779 C436 808 410 834 382 834 C353 834 327 808 327 779 C327 751 353 725 382 725 L382 725 Z M374 -15 C453 -15 533 6 578 35 L578 210 L573 210 L520 85 C481 52 432 35 373 35 C244 35 140 140 140 328 C140 493 230 615 369 615 C425 615 472 596 510 558 L562 463 L567 463 L567 630 C516 653 457 665 389 665 C209 665 50 540 50 319 C50 116 190 -15 374 -15 L374 -15 Z " />
<glyph glyph-name="cdotaccent" unicode="&#x10b;" horiz-adv-x="409" d="M243 524 C271 524 297 550 297 578 C297 607 271 633 243 633 C214 633 188 607 188 578 C188 550 214 524 243 524 L243 524 Z M229 -10 C285 -10 342 12 379 48 L368 69 C324 46 280 44 265 44 C176 44 117 104 117 225 C117 325 164 379 229 379 C255 379 278 371 298 355 L357 280 L362 280 L362 398 C331 413 294 420 252 420 C107 420 36 296 40 193 C40 67 118 -10 229 -10 L229 -10 Z " />
<glyph glyph-name="Ccaron" unicode="&#x10c;" horiz-adv-x="643" d="M491 841 L376 773 L261 841 L220 841 L358 707 L394 707 L532 841 L491 841 Z M374 -15 C453 -15 533 6 578 35 L578 210 L573 210 L520 85 C481 52 432 35 373 35 C244 35 140 140 140 328 C140 493 230 615 369 615 C425 615 472 596 510 558 L562 463 L567 463 L567 630 C516 653 457 665 389 665 C209 665 50 540 50 319 C50 116 190 -15 374 -15 L374 -15 Z " />
<glyph glyph-name="ccaron" unicode="&#x10d;" horiz-adv-x="409" d="M380 664 L338 664 L236 563 L136 664 L92 664 L214 480 L258 480 L380 664 Z M265 44 C176 44 117 104 117 225 C117 325 164 379 229 379 C255 379 278 371 298 355 L357 280 L362 280 L362 398 C331 413 294 420 252 420 C107 420 36 296 40 193 C40 67 118 -10 229 -10 C285 -10 342 12 379 48 L368 69 C324 46 280 44 265 44 L265 44 Z " />
<glyph glyph-name="Dcaron" unicode="&#x10e;" horiz-adv-x="715" d="M455 841 L340 773 L225 841 L184 841 L322 707 L358 707 L496 841 L455 841 Z M292 0 C535 0 665 123 665 344 C665 548 543 650 299 650 L55 650 L55 640 L140 590 L140 50 L135 45 L60 45 L60 0 L292 0 Z M220 605 L280 605 C480 605 580 515 580 335 C580 142 477 45 289 45 L220 45 L220 605 Z " />
<glyph glyph-name="dcaron" unicode="&#x10f;" horiz-adv-x="559" d="M422 717 L416 720 L285 657 L285 652 L352 620 L352 399 C323 413 288 420 248 420 C110 420 40 309 40 193 C40 73 112 -10 197 -10 C245 -10 293 12 352 48 L352 0 L492 0 L492 45 L427 45 L422 50 L422 717 Z M464 523 L503 523 L574 716 L494 716 L464 523 Z M239 49 C159 45 114 124 117 215 C117 325 157 380 238 380 C290 380 333 357 352 318 L352 64 C324 56 274 49 239 49 L239 49 Z " />
<glyph glyph-name="Dcroat" unicode="&#x110;" horiz-adv-x="715" d="M55 650 L55 640 L140 590 L140 365 L45 365 L45 320 L140 320 L140 50 L135 45 L60 45 L60 0 L292 0 C535 0 665 123 665 344 C665 548 543 650 299 650 L55 650 Z M220 45 L220 320 L348 320 L348 365 L220 365 L220 605 L280 605 C480 605 580 515 580 335 C580 142 477 45 289 45 L220 45 Z " />
<glyph glyph-name="dcroat" unicode="&#x111;" horiz-adv-x="522" d="M422 50 L422 500 L491 500 L491 545 L422 545 L422 717 L416 720 L285 657 L285 652 L352 620 L352 545 L232 545 L232 500 L352 500 L352 399 C323 413 288 420 248 420 C110 420 40 309 40 193 C40 73 112 -10 197 -10 C245 -10 293 12 352 48 L352 0 L492 0 L492 45 L427 45 L422 50 Z M239 49 C159 45 114 124 117 215 C117 325 157 380 238 380 C290 380 333 357 352 318 L352 64 C324 56 274 49 239 49 L239 49 Z " />
<glyph glyph-name="Emacron" unicode="&#x112;" horiz-adv-x="580" d="M177 792 L177 740 L441 740 L441 792 L177 792 Z M447 45 L220 45 L220 322 L385 322 L390 317 L390 242 L435 242 L435 447 L390 447 L390 372 L385 367 L220 367 L220 605 L436 605 L502 485 L507 485 L507 650 L55 650 L55 640 L140 590 L140 50 L135 45 L60 45 L60 0 L525 0 L535 165 L530 165 L447 45 Z " />
<glyph glyph-name="emacron" unicode="&#x113;" horiz-adv-x="430" d="M107 597 L107 545 L371 545 L371 597 L107 597 Z M395 257 C395 357 335 421 237 421 C192 421 133 399 93 351 C53 303 40 248 40 196 C41 51 148 -14 235 -10 C292 -10 353 12 390 48 L379 69 C335 46 291 44 276 44 C180 44 118 99 117 223 L393 223 L395 257 L395 257 Z M230 380 C295 380 315 320 317 259 L119 259 C128 342 177 380 230 380 L230 380 Z " />
<glyph glyph-name="Ebreve" unicode="&#x114;" horiz-adv-x="580" d="M309 714 C411 711 443 799 440 847 L407 847 C403 796 370 770 309 770 C250 770 215 796 211 847 L178 847 C174 764 242 708 309 714 L309 714 Z M447 45 L220 45 L220 322 L385 322 L390 317 L390 242 L435 242 L435 447 L390 447 L390 372 L385 367 L220 367 L220 605 L436 605 L502 485 L507 485 L507 650 L55 650 L55 640 L140 590 L140 50 L135 45 L60 45 L60 0 L525 0 L535 165 L530 165 L447 45 Z " />
<glyph glyph-name="ebreve" unicode="&#x115;" horiz-adv-x="430" d="M235 490 C318 490 366 555 366 643 L331 643 C326 586 292 551 235 551 C178 551 144 586 139 643 L104 643 C104 555 152 490 235 490 L235 490 Z M395 257 C395 357 335 421 237 421 C192 421 133 399 93 351 C53 303 40 248 40 196 C41 51 148 -14 235 -10 C292 -10 353 12 390 48 L379 69 C335 46 291 44 276 44 C180 44 118 99 117 223 L393 223 L395 257 L395 257 Z M230 380 C295 380 315 320 317 259 L119 259 C128 342 177 380 230 380 L230 380 Z " />
<glyph glyph-name="Edotaccent" unicode="&#x116;" horiz-adv-x="580" d="M322 725 C350 725 376 751 376 779 C376 808 350 834 322 834 C293 834 267 808 267 779 C267 751 293 725 322 725 L322 725 Z M447 45 L220 45 L220 322 L385 322 L390 317 L390 242 L435 242 L435 447 L390 447 L390 372 L385 367 L220 367 L220 605 L436 605 L502 485 L507 485 L507 650 L55 650 L55 640 L140 590 L140 50 L135 45 L60 45 L60 0 L525 0 L535 165 L530 165 L447 45 Z " />
<glyph glyph-name="edotaccent" unicode="&#x117;" horiz-adv-x="430" d="M241 524 C269 524 295 550 295 578 C295 607 269 633 241 633 C212 633 186 607 186 578 C186 550 212 524 241 524 L241 524 Z M395 257 C395 357 335 421 237 421 C192 421 133 399 93 351 C53 303 40 248 40 196 C41 51 148 -14 235 -10 C292 -10 353 12 390 48 L379 69 C335 46 291 44 276 44 C180 44 118 99 117 223 L393 223 L395 257 L395 257 Z M230 380 C295 380 315 320 317 259 L119 259 C128 342 177 380 230 380 L230 380 Z " />
<glyph glyph-name="Eogonek" unicode="&#x118;" horiz-adv-x="580" d="M447 45 L220 45 L220 322 L385 322 L390 317 L390 242 L435 242 L435 447 L390 447 L390 372 L385 367 L220 367 L220 605 L436 605 L502 485 L507 485 L507 650 L55 650 L55 640 L140 590 L140 50 L135 45 L60 45 L60 0 L448 0 C375 -48 336 -123 340 -158 C340 -194 365 -230 412 -230 C448 -230 475 -212 515 -181 L504 -160 C487 -169 472 -173 459 -173 C430 -173 412 -156 412 -121 C407 -84 456 2 520 0 L525 0 L535 165 L530 165 L447 45 Z " />
<glyph glyph-name="eogonek" unicode="&#x119;" horiz-adv-x="430" d="M395 257 C395 357 335 421 237 421 C192 421 133 399 93 351 C53 303 40 248 40 196 C41 51 148 -14 235 -10 C255 -10 273 -8 289 -4 C230 -49 191 -109 191 -158 C191 -194 216 -230 263 -230 C299 -230 326 -212 366 -181 L355 -160 C338 -169 322 -173 309 -173 C281 -173 263 -156 263 -121 C263 -76 296 -20 340 12 C367 31 384 44 390 49 L381 65 C353 52 307 42 278 42 C170 42 118 108 117 223 L393 223 L395 257 L395 257 Z M230 380 C295 380 315 320 317 259 L119 259 C128 342 177 380 230 380 L230 380 Z " />
<glyph glyph-name="Ecaron" unicode="&#x11a;" horiz-adv-x="580" d="M478 841 L437 841 L322 773 L207 841 L166 841 L304 707 L340 707 L478 841 Z M447 45 L220 45 L220 322 L385 322 L390 317 L390 242 L435 242 L435 447 L390 447 L390 372 L385 367 L220 367 L220 605 L436 605 L502 485 L507 485 L507 650 L55 650 L55 640 L140 590 L140 50 L135 45 L60 45 L60 0 L525 0 L535 165 L530 165 L447 45 Z " />
<glyph glyph-name="ecaron" unicode="&#x11b;" horiz-adv-x="430" d="M381 664 L339 664 L237 563 L137 664 L93 664 L215 480 L259 480 L381 664 Z M395 257 C395 357 335 421 237 421 C192 421 133 399 93 351 C53 303 40 248 40 196 C41 51 148 -14 235 -10 C292 -10 353 12 390 48 L379 69 C335 46 291 44 276 44 C180 44 118 99 117 223 L393 223 L395 257 L395 257 Z M230 380 C295 380 315 320 317 259 L119 259 C128 342 177 380 230 380 L230 380 Z " />
<glyph glyph-name="Gcircumflex" unicode="&#x11c;" horiz-adv-x="692" d="M499 706 L540 706 L402 840 L366 840 L228 706 L269 706 L384 774 L499 706 Z M407 221 L507 221 L512 216 L512 62 C474 44 433 35 388 35 C239 35 140 142 140 335 C140 511 238 613 369 616 C433 617 474 602 514 565 L573 462 L578 462 L578 631 C524 654 462 665 393 665 C201 665 50 524 50 327 C50 126 177 -15 373 -15 C465 -15 525 2 592 45 L592 216 L597 221 L662 221 L662 266 L407 266 L407 221 Z " />
<glyph glyph-name="gcircumflex" unicode="&#x11d;" horiz-adv-x="458" d="M329 480 L373 480 L251 664 L207 664 L85 480 L127 480 L229 581 L329 480 Z M332 377 C303 406 265 420 218 420 C116 420 46 346 46 249 C46 194 73 146 118 122 C69 85 45 50 45 19 C45 -12 61 -32 94 -42 C90 -46 65 -67 51 -82 C37 -97 24 -117 24 -144 C24 -200 83 -230 172 -230 C225 -230 299 -218 348 -184 C396 -150 412 -108 412 -68 C412 -7 363 22 248 22 L222 22 C138 22 114 34 114 63 C114 78 121 95 135 114 C154 106 176 102 201 102 C256 102 302 125 329 152 C356 179 375 213 375 264 C375 297 368 325 353 350 L448 341 L448 425 L332 377 Z M211 136 C145 136 121 209 121 271 C121 346 157 387 210 387 C271 390 304 308 301 247 C301 172 267 136 211 136 L211 136 Z M256 -50 C317 -50 348 -66 348 -99 C348 -120 335 -144 302 -164 C269 -184 218 -195 185 -195 C128 -195 93 -171 93 -120 C93 -95 101 -71 116 -46 C133 -49 155 -50 182 -50 L256 -50 Z " />
<glyph glyph-name="Gbreve" unicode="&#x11e;" horiz-adv-x="692" d="M391 714 C493 711 525 799 522 847 L489 847 C485 796 452 770 391 770 C332 770 297 796 293 847 L260 847 C256 764 324 708 391 714 L391 714 Z M407 221 L507 221 L512 216 L512 62 C474 44 433 35 388 35 C239 35 140 142 140 335 C140 511 238 613 369 616 C433 617 474 602 514 565 L573 462 L578 462 L578 631 C524 654 462 665 393 665 C201 665 50 524 50 327 C50 126 177 -15 373 -15 C465 -15 525 2 592 45 L592 216 L597 221 L662 221 L662 266 L407 266 L407 221 Z " />
<glyph glyph-name="gbreve" unicode="&#x11f;" horiz-adv-x="458" d="M220 490 C303 490 351 555 351 643 L316 643 C311 586 277 551 220 551 C163 551 129 586 124 643 L89 643 C89 555 137 490 220 490 L220 490 Z M332 377 C303 406 265 420 218 420 C116 420 46 346 46 249 C46 194 73 146 118 122 C69 85 45 50 45 19 C45 -12 61 -32 94 -42 C90 -46 65 -67 51 -82 C37 -97 24 -117 24 -144 C24 -200 83 -230 172 -230 C225 -230 299 -218 348 -184 C396 -150 412 -108 412 -68 C412 -7 363 22 248 22 L222 22 C138 22 114 34 114 63 C114 78 121 95 135 114 C154 106 176 102 201 102 C256 102 302 125 329 152 C356 179 375 213 375 264 C375 297 368 325 353 350 L448 341 L448 425 L332 377 Z M211 136 C145 136 121 209 121 271 C121 346 157 387 210 387 C271 390 304 308 301 247 C301 172 267 136 211 136 L211 136 Z M256 -50 C317 -50 348 -66 348 -99 C348 -120 335 -144 302 -164 C269 -184 218 -195 185 -195 C128 -195 93 -171 93 -120 C93 -95 101 -71 116 -46 C133 -49 155 -50 182 -50 L256 -50 Z " />
<glyph glyph-name="Gdotaccent" unicode="&#x120;" horiz-adv-x="692" d="M391 725 C419 725 445 751 445 779 C445 808 419 834 391 834 C362 834 336 808 336 779 C336 751 362 725 391 725 L391 725 Z M407 221 L507 221 L512 216 L512 62 C474 44 433 35 388 35 C239 35 140 142 140 335 C140 511 238 613 369 616 C433 617 474 602 514 565 L573 462 L578 462 L578 631 C524 654 462 665 393 665 C201 665 50 524 50 327 C50 126 177 -15 373 -15 C465 -15 525 2 592 45 L592 216 L597 221 L662 221 L662 266 L407 266 L407 221 Z " />
<glyph glyph-name="gdotaccent" unicode="&#x121;" horiz-adv-x="458" d="M219 524 C247 524 273 550 273 578 C273 607 247 633 219 633 C190 633 164 607 164 578 C164 550 190 524 219 524 L219 524 Z M332 377 C303 406 265 420 218 420 C116 420 46 346 46 249 C46 194 73 146 118 122 C69 85 45 50 45 19 C45 -12 61 -32 94 -42 C90 -46 65 -67 51 -82 C37 -97 24 -117 24 -144 C24 -200 83 -230 172 -230 C225 -230 299 -218 348 -184 C396 -150 412 -108 412 -68 C412 -7 363 22 248 22 L222 22 C138 22 114 34 114 63 C114 78 121 95 135 114 C154 106 176 102 201 102 C256 102 302 125 329 152 C356 179 375 213 375 264 C375 297 368 325 353 350 L448 341 L448 425 L332 377 Z M211 136 C145 136 121 209 121 271 C121 346 157 387 210 387 C271 390 304 308 301 247 C301 172 267 136 211 136 L211 136 Z M256 -50 C317 -50 348 -66 348 -99 C348 -120 335 -144 302 -164 C269 -184 218 -195 185 -195 C128 -195 93 -171 93 -120 C93 -95 101 -71 116 -46 C133 -49 155 -50 182 -50 L256 -50 Z " />
<glyph glyph-name="uni0122" unicode="&#x122;" horiz-adv-x="692" d="M407 221 L507 221 L512 216 L512 62 C474 44 433 35 388 35 C239 35 140 142 140 335 C140 511 238 613 369 616 C433 617 474 602 514 565 L573 462 L578 462 L578 631 C524 654 462 665 393 665 C201 665 50 524 50 327 C50 126 177 -15 373 -15 C465 -15 525 2 592 45 L592 216 L597 221 L662 221 L662 266 L407 266 L407 221 Z M377 -60 C352 -60 331 -79 331 -104 C331 -131 353 -148 377 -148 L381 -148 L381 -152 C381 -175 361 -201 326 -214 L337 -233 C392 -216 427 -168 427 -120 C427 -84 406 -60 377 -60 L377 -60 Z " />
<glyph glyph-name="uni0123" unicode="&#x123;" horiz-adv-x="458" d="M211 494 C236 494 257 513 257 538 C257 565 235 582 211 582 L207 582 L207 586 C207 609 227 635 262 648 L251 667 C196 650 161 602 161 554 C161 518 182 494 211 494 L211 494 Z M332 377 C303 406 265 420 218 420 C116 420 46 346 46 249 C46 194 73 146 118 122 C69 85 45 50 45 19 C45 -12 61 -32 94 -42 C90 -46 65 -67 51 -82 C37 -97 24 -117 24 -144 C24 -200 83 -230 172 -230 C225 -230 299 -218 348 -184 C396 -150 412 -108 412 -68 C412 -7 363 22 248 22 L222 22 C138 22 114 34 114 63 C114 78 121 95 135 114 C154 106 176 102 201 102 C256 102 302 125 329 152 C356 179 375 213 375 264 C375 297 368 325 353 350 L448 341 L448 425 L332 377 Z M211 136 C145 136 121 209 121 271 C121 346 157 387 210 387 C271 390 304 308 301 247 C301 172 267 136 211 136 L211 136 Z M256 -50 C317 -50 348 -66 348 -99 C348 -120 335 -144 302 -164 C269 -184 218 -195 185 -195 C128 -195 93 -171 93 -120 C93 -95 101 -71 116 -46 C133 -49 155 -50 182 -50 L256 -50 Z " />
<glyph glyph-name="Hcircumflex" unicode="&#x124;" horiz-adv-x="780" d="M506 706 L547 706 L409 840 L373 840 L235 706 L276 706 L391 774 L506 706 Z M725 650 L470 650 L470 640 L560 590 L560 367 L220 367 L220 590 L310 640 L310 650 L55 650 L55 640 L140 590 L140 50 L135 45 L60 45 L60 0 L300 0 L300 45 L225 45 L220 50 L220 322 L560 322 L560 50 L555 45 L480 45 L480 0 L720 0 L720 45 L645 45 L640 50 L640 590 L725 640 L725 650 Z " />
<glyph glyph-name="hcircumflex" unicode="&#x125;" horiz-adv-x="536" d="M291 729 L153 863 L117 863 L-21 729 L20 729 L135 797 L250 729 L291 729 Z M442 50 L442 303 C442 379 400 420 312 420 C277 420 230 401 169 362 L169 717 L163 720 L32 657 L32 652 L99 620 L99 50 L94 45 L34 45 L34 0 L239 0 L239 45 L174 45 L169 50 L169 342 C214 351 251 356 280 356 C347 356 372 336 372 240 L372 50 L367 45 L302 45 L302 0 L507 0 L507 45 L447 45 L442 50 Z " />
<glyph glyph-name="Hbar" unicode="&#x126;" horiz-adv-x="780" d="M725 650 L470 650 L470 640 L560 590 L560 508 L220 508 L220 590 L310 640 L310 650 L55 650 L55 640 L140 590 L140 508 L60 508 L60 463 L140 463 L140 50 L135 45 L60 45 L60 0 L300 0 L300 45 L225 45 L220 50 L220 322 L560 322 L560 50 L555 45 L480 45 L480 0 L720 0 L720 45 L645 45 L640 50 L640 463 L720 463 L720 508 L640 508 L640 590 L725 640 L725 650 Z M220 367 L220 463 L560 463 L560 367 L220 367 Z " />
<glyph glyph-name="hbar" unicode="&#x127;" horiz-adv-x="536" d="M442 50 L442 303 C442 379 400 420 312 420 C277 420 230 401 169 362 L169 500 L301 500 L301 545 L169 545 L169 717 L163 720 L32 657 L32 652 L99 620 L99 545 L24 545 L24 500 L99 500 L99 50 L94 45 L34 45 L34 0 L239 0 L239 45 L174 45 L169 50 L169 342 C214 351 251 356 280 356 C347 356 372 336 372 240 L372 50 L367 45 L302 45 L302 0 L507 0 L507 45 L447 45 L442 50 Z " />
<glyph glyph-name="Itilde" unicode="&#x128;" horiz-adv-x="360" d="M246 725 C289 725 322 762 335 813 L309 824 C296 795 277 780 254 780 C243 780 227 786 208 798 C168 821 151 827 127 827 C84 827 51 790 39 739 L65 728 C77 757 95 772 120 772 C133 772 152 764 178 749 C204 733 227 725 246 725 L246 725 Z M300 0 L300 45 L225 45 L220 50 L220 590 L305 640 L305 650 L55 650 L55 640 L140 590 L140 50 L135 45 L60 45 L60 0 L300 0 Z " />
<glyph glyph-name="itilde" unicode="&#x129;" horiz-adv-x="263" d="M181 519 C213 519 245 546 262 607 L236 618 C225 591 210 577 192 577 C189 577 184 578 177 580 C170 582 158 589 140 602 C121 615 104 621 87 621 C46 621 16 584 3 533 L29 522 C41 553 57 568 78 568 C81 568 87 567 94 565 C101 563 113 555 131 541 C149 526 166 519 181 519 L181 519 Z M239 0 L239 45 L174 45 L169 50 L169 417 L163 420 L32 359 L32 354 L99 322 L99 50 L94 45 L34 45 L34 0 L239 0 Z " />
<glyph glyph-name="Imacron" unicode="&#x12a;" horiz-adv-x="360" d="M314 740 L314 792 L50 792 L50 740 L314 740 Z M300 0 L300 45 L225 45 L220 50 L220 590 L305 640 L305 650 L55 650 L55 640 L140 590 L140 50 L135 45 L60 45 L60 0 L300 0 Z " />
<glyph glyph-name="imacron" unicode="&#x12b;" horiz-adv-x="263" d="M238 545 L238 597 L34 597 L34 545 L238 545 Z M234 0 L234 45 L174 45 L169 50 L169 417 L163 420 L32 359 L32 354 L99 322 L99 50 L94 45 L34 45 L34 0 L234 0 Z " />
<glyph glyph-name="Ibreve" unicode="&#x12c;" horiz-adv-x="360" d="M184 714 C286 711 318 799 315 847 L282 847 C278 796 245 770 184 770 C125 770 90 796 86 847 L53 847 C49 764 117 708 184 714 L184 714 Z M300 0 L300 45 L225 45 L220 50 L220 590 L305 640 L305 650 L55 650 L55 640 L140 590 L140 50 L135 45 L60 45 L60 0 L300 0 Z " />
<glyph glyph-name="ibreve" unicode="&#x12d;" horiz-adv-x="263" d="M124 490 C207 490 255 555 255 643 L220 643 C215 586 181 551 124 551 C67 551 33 586 28 643 L-7 643 C-7 555 41 490 124 490 L124 490 Z M234 0 L234 45 L174 45 L169 50 L169 417 L163 420 L32 359 L32 354 L99 322 L99 50 L94 45 L34 45 L34 0 L234 0 Z " />
<glyph glyph-name="Iogonek" unicode="&#x12e;" horiz-adv-x="360" d="M178 -230 C214 -230 241 -212 281 -181 L272 -165 C253 -174 237 -178 223 -178 C195 -178 178 -158 178 -121 C178 -92 189 -64 211 -39 C232 -13 262 0 300 0 L300 45 L225 45 L220 50 L220 590 L305 640 L305 650 L55 650 L55 640 L140 590 L140 50 L135 45 L60 45 L60 0 L215 0 C143 -43 102 -124 106 -158 C106 -194 131 -230 178 -230 L178 -230 Z " />
<glyph glyph-name="iogonek" unicode="&#x12f;" horiz-adv-x="263" d="M127 524 C155 524 181 550 181 578 C181 607 155 633 127 633 C98 633 72 607 72 578 C72 550 98 524 127 524 L127 524 Z M169 50 L169 417 L163 420 L32 359 L32 354 L99 322 L99 50 L94 45 L34 45 L34 0 L136 0 C107 -17 82 -41 61 -71 C40 -101 30 -130 30 -158 C30 -194 55 -230 102 -230 C138 -230 165 -212 205 -181 L194 -160 C177 -169 161 -173 148 -173 C120 -173 102 -154 102 -121 C97 -87 145 2 229 0 L239 0 L239 45 L174 45 L169 50 Z " />
<glyph glyph-name="Idotaccent" unicode="&#x130;" horiz-adv-x="360" d="M180 725 C208 725 234 751 234 779 C234 808 208 834 180 834 C151 834 125 808 125 779 C125 751 151 725 180 725 L180 725 Z M300 0 L300 45 L225 45 L220 50 L220 590 L305 640 L305 650 L55 650 L55 640 L140 590 L140 50 L135 45 L60 45 L60 0 L300 0 Z " />
<glyph glyph-name="dotlessi" unicode="&#x131;" horiz-adv-x="263" d="M234 0 L234 45 L174 45 L169 50 L169 417 L163 420 L32 359 L32 354 L99 322 L99 50 L94 45 L34 45 L34 0 L234 0 Z " />
<glyph glyph-name="IJ" unicode="&#x132;" horiz-adv-x="660" d="M300 0 L300 45 L225 45 L220 50 L220 590 L305 640 L305 650 L55 650 L55 640 L140 590 L140 50 L135 45 L60 45 L60 0 L300 0 Z M325 -162 C506 -87 516 24 520 144 L520 590 L605 640 L605 650 L355 650 L355 640 L440 590 L440 154 C440 89 435 40 425 7 C405 -60 367 -102 314 -142 L325 -162 L325 -162 Z " />
<glyph glyph-name="ij" unicode="&#x133;" horiz-adv-x="496" d="M127 524 C155 524 181 550 181 578 C181 607 155 633 127 633 C98 633 72 607 72 578 C72 550 98 524 127 524 L127 524 Z M374 524 C402 524 428 550 428 578 C428 607 402 633 374 633 C345 633 319 607 319 578 C319 550 345 524 374 524 L374 524 Z M234 0 L234 45 L174 45 L169 50 L169 417 L163 420 L32 359 L32 354 L99 322 L99 50 L94 45 L34 45 L34 0 L234 0 Z M260 -227 C312 -212 348 -194 367 -173 C405 -131 416 -65 416 27 L416 417 L410 420 L279 359 L279 354 L346 322 L346 -11 C346 -75 339 -119 324 -144 C309 -168 284 -188 247 -203 L260 -227 L260 -227 Z " />
<glyph glyph-name="Jcircumflex" unicode="&#x134;" horiz-adv-x="350" d="M61 706 L176 774 L291 706 L332 706 L194 840 L158 840 L20 706 L61 706 Z M25 -162 C206 -87 216 24 220 144 L220 590 L305 640 L305 650 L55 650 L55 640 L140 590 L140 154 C140 89 135 40 125 7 C105 -60 67 -102 14 -142 L25 -162 L25 -162 Z " />
<glyph glyph-name="jcircumflex" unicode="&#x135;" horiz-adv-x="244" d="M99 664 L-23 480 L19 480 L121 581 L221 480 L265 480 L143 664 L99 664 Z M27 354 L94 322 L94 -11 C94 -75 87 -119 72 -144 C57 -168 32 -188 -5 -203 L8 -227 C60 -212 96 -194 115 -173 C153 -131 164 -65 164 27 L164 417 L158 420 L27 359 L27 354 Z " />
<glyph glyph-name="uni0136" unicode="&#x136;" horiz-adv-x="666" d="M220 590 L305 640 L305 650 L55 650 L55 640 L140 590 L140 50 L135 45 L60 45 L60 0 L300 0 L300 45 L225 45 L220 50 L220 590 Z M642 650 L405 650 L405 640 L490 590 L234 337 L501 0 L632 0 L632 45 L571 45 L563 50 L317 361 L552 590 L642 640 L642 650 Z M369 -60 C344 -60 323 -79 323 -104 C323 -131 345 -148 369 -148 L373 -148 L373 -152 C373 -175 353 -201 318 -214 L329 -233 C384 -216 419 -168 419 -120 C419 -84 398 -60 369 -60 L369 -60 Z " />
<glyph glyph-name="uni0137" unicode="&#x137;" horiz-adv-x="504" d="M34 45 L34 0 L234 0 L234 45 L174 45 L169 50 L169 717 L163 720 L32 657 L32 652 L99 620 L99 50 L94 45 L34 45 Z M248 238 L470 401 L470 404 L271 404 L271 399 L329 347 L177 223 L362 0 L481 0 L481 45 L421 45 L248 238 Z M265 -60 C240 -60 219 -79 219 -104 C219 -131 241 -148 265 -148 L269 -148 L269 -152 C269 -175 249 -201 214 -214 L225 -233 C280 -216 315 -168 315 -120 C315 -84 294 -60 265 -60 L265 -60 Z " />
<glyph glyph-name="kgreenlandic" unicode="&#x138;" horiz-adv-x="498" d="M169 417 L163 420 L32 359 L32 354 L99 322 L99 50 L94 45 L34 45 L34 0 L234 0 L234 45 L174 45 L169 50 L169 417 Z M254 223 L468 407 L468 410 L284 410 L284 405 L342 353 L181 205 L350 0 L469 0 L469 45 L409 45 L254 223 Z " />
<glyph glyph-name="Lacute" unicode="&#x139;" horiz-adv-x="558" d="M170 706 L371 833 L371 840 L251 840 L129 706 L170 706 Z M513 0 L513 165 L503 165 L440 45 L220 45 L220 590 L310 640 L310 650 L55 650 L55 640 L140 590 L140 50 L135 45 L60 45 L60 0 L513 0 Z " />
<glyph glyph-name="lacute" unicode="&#x13a;" horiz-adv-x="268" d="M66 736 L267 863 L267 870 L147 870 L25 736 L66 736 Z M239 0 L239 45 L174 45 L169 50 L169 717 L163 720 L32 657 L32 652 L99 620 L99 50 L94 45 L34 45 L34 0 L239 0 Z " />
<glyph glyph-name="uni013B" unicode="&#x13b;" horiz-adv-x="558" d="M440 45 L220 45 L220 590 L310 640 L310 650 L55 650 L55 640 L140 590 L140 50 L135 45 L60 45 L60 0 L513 0 L513 165 L503 165 L440 45 Z M312 -60 C287 -60 266 -79 266 -104 C266 -131 288 -148 312 -148 L316 -148 L316 -152 C316 -175 296 -201 261 -214 L272 -233 C327 -216 362 -168 362 -120 C362 -84 341 -60 312 -60 L312 -60 Z " />
<glyph glyph-name="uni013C" unicode="&#x13c;" horiz-adv-x="268" d="M169 50 L169 717 L163 720 L32 657 L32 652 L99 620 L99 50 L94 45 L34 45 L34 0 L239 0 L239 45 L174 45 L169 50 Z M132 -60 C107 -60 86 -79 86 -104 C86 -131 108 -148 132 -148 L136 -148 L136 -152 C136 -175 116 -201 81 -214 L92 -233 C147 -216 182 -168 182 -120 C182 -84 161 -60 132 -60 L132 -60 Z " />
<glyph glyph-name="Lcaron" unicode="&#x13d;" horiz-adv-x="558" d="M412 459 L483 652 L403 652 L373 459 L412 459 Z M513 0 L513 165 L503 165 L440 45 L220 45 L220 590 L310 640 L310 650 L55 650 L55 640 L140 590 L140 50 L135 45 L60 45 L60 0 L513 0 Z " />
<glyph glyph-name="lcaron" unicode="&#x13e;" horiz-adv-x="306" d="M239 0 L239 45 L174 45 L169 50 L169 717 L163 720 L32 657 L32 652 L99 620 L99 50 L94 45 L34 45 L34 0 L239 0 Z M250 523 L321 716 L241 716 L211 523 L250 523 Z " />
<glyph glyph-name="Ldot" unicode="&#x13f;" horiz-adv-x="558" d="M513 0 L513 165 L503 165 L440 45 L220 45 L220 590 L310 640 L310 650 L55 650 L55 640 L140 590 L140 50 L135 45 L60 45 L60 0 L513 0 Z M362 287 C390 287 416 313 416 341 C416 370 390 396 362 396 C333 396 307 370 307 341 C307 313 333 287 362 287 L362 287 Z " />
<glyph glyph-name="ldot" unicode="&#x140;" horiz-adv-x="270" d="M239 0 L239 45 L174 45 L169 50 L169 717 L163 720 L32 657 L32 652 L99 620 L99 50 L94 45 L34 45 L34 0 L239 0 Z M267 308 C295 308 321 334 321 362 C321 391 295 417 267 417 C238 417 212 391 212 362 C212 334 238 308 267 308 L267 308 Z " />
<glyph glyph-name="Lslash" unicode="&#x141;" horiz-adv-x="558" d="M440 45 L220 45 L220 312 L346 381 L346 433 L220 364 L220 590 L310 640 L310 650 L55 650 L55 640 L140 590 L140 329 L50 279 L50 227 L140 277 L140 50 L135 45 L60 45 L60 0 L513 0 L513 165 L503 165 L440 45 Z " />
<glyph glyph-name="lslash" unicode="&#x142;" horiz-adv-x="268" d="M245 434 L169 404 L169 717 L163 720 L32 657 L32 652 L99 620 L99 382 L24 352 L24 302 L99 332 L99 50 L94 45 L34 45 L34 0 L239 0 L239 45 L174 45 L169 50 L169 353 L245 383 L245 434 Z " />
<glyph glyph-name="Nacute" unicode="&#x143;" horiz-adv-x="772" d="M588 840 L468 840 L346 706 L387 706 L588 833 L588 840 Z M497 640 L582 590 L582 157 L224 650 L55 650 L55 640 L140 590 L140 50 L135 45 L60 45 L60 0 L275 0 L275 45 L200 45 L195 50 L195 553 L598 0 L637 0 L637 590 L722 640 L722 650 L497 650 L497 640 Z " />
<glyph glyph-name="nacute" unicode="&#x144;" horiz-adv-x="536" d="M412 664 L312 664 L220 480 L255 480 L412 656 L412 664 Z M442 50 L442 303 C442 379 400 420 312 420 C277 420 228 400 167 361 L159 418 L153 421 L32 359 L32 354 L99 322 L99 50 L94 45 L34 45 L34 0 L239 0 L239 45 L174 45 L169 50 L169 342 C214 351 251 356 280 356 C347 356 372 336 372 240 L372 50 L367 45 L302 45 L302 0 L507 0 L507 45 L447 45 L442 50 Z " />
<glyph glyph-name="uni0145" unicode="&#x145;" horiz-adv-x="772" d="M497 640 L582 590 L582 157 L224 650 L55 650 L55 640 L140 590 L140 50 L135 45 L60 45 L60 0 L275 0 L275 45 L200 45 L195 50 L195 553 L598 0 L637 0 L637 590 L722 640 L722 650 L497 650 L497 640 Z M411 -60 C386 -60 365 -79 365 -104 C365 -131 387 -148 411 -148 L415 -148 L415 -152 C415 -175 395 -201 360 -214 L371 -233 C426 -216 461 -168 461 -120 C461 -84 440 -60 411 -60 L411 -60 Z " />
<glyph glyph-name="uni0146" unicode="&#x146;" horiz-adv-x="536" d="M442 50 L442 303 C442 379 400 420 312 420 C277 420 228 400 167 361 L159 418 L153 421 L32 359 L32 354 L99 322 L99 50 L94 45 L34 45 L34 0 L239 0 L239 45 L174 45 L169 50 L169 342 C214 351 251 356 280 356 C347 356 372 336 372 240 L372 50 L367 45 L302 45 L302 0 L507 0 L507 45 L447 45 L442 50 Z M265 -60 C240 -60 219 -79 219 -104 C219 -131 241 -148 265 -148 L269 -148 L269 -152 C269 -175 249 -201 214 -214 L225 -233 C280 -216 315 -168 315 -120 C315 -84 294 -60 265 -60 L265 -60 Z " />
<glyph glyph-name="Ncaron" unicode="&#x147;" horiz-adv-x="772" d="M544 841 L503 841 L388 773 L273 841 L232 841 L370 707 L406 707 L544 841 Z M497 640 L582 590 L582 157 L224 650 L55 650 L55 640 L140 590 L140 50 L135 45 L60 45 L60 0 L275 0 L275 45 L200 45 L195 50 L195 553 L598 0 L637 0 L637 590 L722 640 L722 650 L497 650 L497 640 Z " />
<glyph glyph-name="ncaron" unicode="&#x148;" horiz-adv-x="536" d="M410 664 L368 664 L266 563 L166 664 L122 664 L244 480 L288 480 L410 664 Z M442 50 L442 303 C442 379 400 420 312 420 C277 420 228 400 167 361 L159 418 L153 421 L32 359 L32 354 L99 322 L99 50 L94 45 L34 45 L34 0 L239 0 L239 45 L174 45 L169 50 L169 342 C214 351 251 356 280 356 C347 356 372 336 372 240 L372 50 L367 45 L302 45 L302 0 L507 0 L507 45 L447 45 L442 50 Z " />
<glyph glyph-name="Eng" unicode="&#x14a;" horiz-adv-x="767" d="M497 640 L582 590 L582 157 L224 650 L55 650 L55 640 L140 590 L140 50 L135 45 L60 45 L60 0 L275 0 L275 45 L200 45 L195 50 L195 553 L582 22 L582 -39 C582 -150 560 -181 502 -207 L513 -228 C634 -191 631 -129 637 -7 L637 590 L722 640 L722 650 L497 650 L497 640 Z " />
<glyph glyph-name="eng" unicode="&#x14b;" horiz-adv-x="507" d="M312 420 C277 420 228 400 167 361 L159 418 L153 421 L32 359 L32 354 L99 322 L99 50 L94 45 L34 45 L34 0 L239 0 L239 45 L174 45 L169 50 L169 342 C214 351 251 356 280 356 C347 356 372 336 372 240 L372 -11 C372 -75 365 -119 350 -144 C335 -168 310 -188 273 -203 L286 -227 C338 -212 374 -194 393 -173 C431 -131 442 -65 442 27 L442 303 C442 379 400 420 312 420 L312 420 Z " />
<glyph glyph-name="Omacron" unicode="&#x14c;" horiz-adv-x="734" d="M503 740 L503 792 L239 792 L239 740 L503 740 Z M360 -15 C558 -15 684 127 684 338 C684 534 562 665 379 665 C195 665 50 529 50 321 C50 108 182 -15 360 -15 L360 -15 Z M369 33 C232 33 137 144 137 335 C137 509 234 617 369 617 C417 617 473 599 513 559 C569 501 596 420 596 320 C596 130 503 33 369 33 L369 33 Z " />
<glyph glyph-name="omacron" unicode="&#x14d;" horiz-adv-x="490" d="M372 545 L372 597 L108 597 L108 545 L372 545 Z M241 -10 C368 -10 450 95 450 213 C450 341 364 420 251 420 C121 420 40 316 40 197 C40 134 63 72 108 36 C152 0 198 -10 241 -10 L241 -10 Z M254 30 C215 30 182 49 156 87 C130 124 117 170 117 223 C117 330 171 380 235 380 C274 380 306 362 333 325 C359 288 372 243 372 188 C372 85 326 30 254 30 L254 30 Z " />
<glyph glyph-name="Obreve" unicode="&#x14e;" horiz-adv-x="734" d="M375 714 C477 711 509 799 506 847 L473 847 C469 796 436 770 375 770 C316 770 281 796 277 847 L244 847 C240 764 308 708 375 714 L375 714 Z M360 -15 C558 -15 684 127 684 338 C684 534 562 665 379 665 C195 665 50 529 50 321 C50 108 182 -15 360 -15 L360 -15 Z M369 33 C232 33 137 144 137 335 C137 509 234 617 369 617 C417 617 473 599 513 559 C569 501 596 420 596 320 C596 130 503 33 369 33 L369 33 Z " />
<glyph glyph-name="obreve" unicode="&#x14f;" horiz-adv-x="490" d="M241 490 C324 490 372 555 372 643 L337 643 C332 586 298 551 241 551 C184 551 150 586 145 643 L110 643 C110 555 158 490 241 490 L241 490 Z M241 -10 C368 -10 450 95 450 213 C450 341 364 420 251 420 C121 420 40 316 40 197 C40 134 63 72 108 36 C152 0 198 -10 241 -10 L241 -10 Z M254 30 C215 30 182 49 156 87 C130 124 117 170 117 223 C117 330 171 380 235 380 C274 380 306 362 333 325 C359 288 372 243 372 188 C372 85 326 30 254 30 L254 30 Z " />
<glyph glyph-name="Ohungarumlaut" unicode="&#x150;" horiz-adv-x="734" d="M281 706 L482 833 L482 840 L362 840 L240 706 L281 706 Z M451 706 L652 833 L652 840 L532 840 L410 706 L451 706 Z M360 -15 C558 -15 684 127 684 338 C684 534 562 665 379 665 C195 665 50 529 50 321 C50 108 182 -15 360 -15 L360 -15 Z M369 33 C232 33 137 144 137 335 C137 509 234 617 369 617 C417 617 473 599 513 559 C569 501 596 420 596 320 C596 130 503 33 369 33 L369 33 Z " />
<glyph glyph-name="ohungarumlaut" unicode="&#x151;" horiz-adv-x="490" d="M156 480 L313 656 L313 664 L213 664 L121 480 L156 480 Z M316 480 L473 656 L473 664 L373 664 L281 480 L316 480 Z M241 -10 C368 -10 450 95 450 213 C450 341 364 420 251 420 C121 420 40 316 40 197 C40 134 63 72 108 36 C152 0 198 -10 241 -10 L241 -10 Z M254 30 C215 30 182 49 156 87 C130 124 117 170 117 223 C117 330 171 380 235 380 C274 380 306 362 333 325 C359 288 372 243 372 188 C372 85 326 30 254 30 L254 30 Z " />
<glyph glyph-name="OE" unicode="&#x152;" horiz-adv-x="931" d="M798 45 L571 45 L571 322 L736 322 L741 317 L741 242 L786 242 L786 447 L741 447 L741 372 L736 367 L571 367 L571 605 L787 605 L853 485 L858 485 L858 650 L396 650 C204 650 50 520 50 321 C50 116 191 0 377 0 L876 0 L886 165 L881 165 L798 45 Z M405 45 C232 45 134 143 134 335 C134 504 237 607 402 607 L491 607 L491 45 L405 45 Z " />
<glyph glyph-name="oe" unicode="&#x153;" horiz-adv-x="722" d="M687 257 C687 357 629 421 535 421 C486 421 430 391 394 342 C362 391 304 420 241 420 C117 420 40 316 40 197 C40 134 61 72 104 36 C147 0 191 -10 231 -10 C296 -10 351 21 387 70 C419 21 472 -10 536 -10 C588 -10 645 13 682 48 L671 69 C644 54 606 44 573 44 C492 44 437 93 430 201 L430 213 L430 223 L685 223 L687 257 L687 257 Z M244 30 C175 25 114 123 117 223 C117 330 167 380 225 380 C292 386 355 290 352 188 C352 85 309 30 244 30 L244 30 Z M528 380 C580 380 607 340 609 259 L431 259 C439 340 481 380 528 380 L528 380 Z " />
<glyph glyph-name="Racute" unicode="&#x154;" horiz-adv-x="674" d="M455 840 L335 840 L213 706 L254 706 L455 833 L455 840 Z M569 50 L394 306 C489 335 540 424 535 488 C531 599 478 649 304 650 L55 650 L55 640 L140 590 L140 50 L135 45 L60 45 L60 0 L300 0 L300 45 L225 45 L220 50 L220 292 L307 292 L506 0 L649 0 L649 45 L577 45 L569 50 Z M220 604 L302 604 C363 607 452 571 448 484 C448 386 391 337 277 337 L220 337 L220 604 Z " />
<glyph glyph-name="racute" unicode="&#x155;" horiz-adv-x="328" d="M305 664 L205 664 L113 480 L148 480 L305 656 L305 664 Z M300 420 C276 420 232 397 169 350 L159 418 L153 421 L32 359 L32 354 L99 322 L99 50 L94 45 L34 45 L34 0 L249 0 L249 45 L174 45 L169 50 L169 331 C206 340 241 345 274 345 C290 345 307 343 325 340 L325 413 C317 418 309 420 300 420 L300 420 Z " />
<glyph glyph-name="uni0156" unicode="&#x156;" horiz-adv-x="674" d="M569 50 L394 306 C489 335 540 424 535 488 C531 599 478 649 304 650 L55 650 L55 640 L140 590 L140 50 L135 45 L60 45 L60 0 L300 0 L300 45 L225 45 L220 50 L220 292 L307 292 L506 0 L649 0 L649 45 L577 45 L569 50 Z M220 604 L302 604 C363 607 452 571 448 484 C448 386 391 337 277 337 L220 337 L220 604 Z M372 -60 C347 -60 326 -79 326 -104 C326 -131 348 -148 372 -148 L376 -148 L376 -152 C376 -175 356 -201 321 -214 L332 -233 C387 -216 422 -168 422 -120 C422 -84 401 -60 372 -60 L372 -60 Z " />
<glyph glyph-name="uni0157" unicode="&#x157;" horiz-adv-x="328" d="M300 420 C276 420 232 397 169 350 L159 418 L153 421 L32 359 L32 354 L99 322 L99 50 L94 45 L34 45 L34 0 L249 0 L249 45 L174 45 L169 50 L169 331 C206 340 241 345 274 345 C290 345 307 343 325 340 L325 413 C317 418 309 420 300 420 L300 420 Z M140 -60 C115 -60 94 -79 94 -104 C94 -131 116 -148 140 -148 L144 -148 L144 -152 C144 -175 124 -201 89 -214 L100 -233 C155 -216 190 -168 190 -120 C190 -84 169 -60 140 -60 L140 -60 Z " />
<glyph glyph-name="Rcaron" unicode="&#x158;" horiz-adv-x="674" d="M451 841 L410 841 L295 773 L180 841 L139 841 L277 707 L313 707 L451 841 Z M569 50 L394 306 C489 335 540 424 535 488 C531 599 478 649 304 650 L55 650 L55 640 L140 590 L140 50 L135 45 L60 45 L60 0 L300 0 L300 45 L225 45 L220 50 L220 292 L307 292 L506 0 L649 0 L649 45 L577 45 L569 50 Z M220 604 L302 604 C363 607 452 571 448 484 C448 386 391 337 277 337 L220 337 L220 604 Z " />
<glyph glyph-name="rcaron" unicode="&#x159;" horiz-adv-x="328" d="M340 664 L298 664 L196 563 L96 664 L52 664 L174 480 L218 480 L340 664 Z M159 418 L153 421 L32 359 L32 354 L99 322 L99 50 L94 45 L34 45 L34 0 L249 0 L249 45 L174 45 L169 50 L169 331 C206 340 241 345 274 345 C290 345 307 343 325 340 L325 413 C317 418 309 420 300 420 C276 420 232 397 169 350 L159 418 Z " />
<glyph glyph-name="Sacute" unicode="&#x15a;" horiz-adv-x="485" d="M231 708 L432 835 L432 842 L312 842 L190 708 L231 708 Z M244 -15 C299 -15 358 4 394 43 C430 82 441 123 441 159 C441 205 425 246 393 283 C384 293 371 304 356 316 C340 328 311 346 269 370 C226 393 197 413 180 429 C146 460 136 491 136 519 C134 586 205 622 247 618 C290 618 326 603 355 573 L410 477 L415 477 L415 623 C352 656 303 665 255 665 C147 665 67 589 67 494 C67 451 79 416 103 387 C126 358 170 326 233 293 C336 240 374 198 374 135 C376 65 301 28 255 32 C204 32 159 51 120 89 L65 185 L60 185 L60 37 C117 2 179 -15 244 -15 L244 -15 Z " />
<glyph glyph-name="sacute" unicode="&#x15b;" horiz-adv-x="346" d="M158 480 L315 656 L315 664 L215 664 L123 480 L158 480 Z M172 -10 C222 -13 311 24 310 107 C310 162 277 192 204 233 C134 271 110 289 110 327 C110 360 136 383 175 383 C200 383 225 372 241 357 L293 299 L298 299 L298 401 C265 414 230 420 192 420 C107 420 50 372 50 305 C50 250 84 214 148 179 C152 177 162 172 177 165 C192 157 204 150 213 144 C231 132 248 114 248 85 C248 50 220 28 179 28 C151 28 120 43 99 64 L49 119 L44 119 L44 14 C87 -2 130 -10 172 -10 L172 -10 Z " />
<glyph glyph-name="Scircumflex" unicode="&#x15c;" horiz-adv-x="485" d="M145 708 L260 776 L375 708 L416 708 L278 842 L242 842 L104 708 L145 708 Z M244 -15 C299 -15 358 4 394 43 C430 82 441 123 441 159 C441 205 425 246 393 283 C384 293 371 304 356 316 C340 328 311 346 269 370 C226 393 197 413 180 429 C146 460 136 491 136 519 C134 586 205 622 247 618 C290 618 326 603 355 573 L410 477 L415 477 L415 623 C352 656 303 665 255 665 C147 665 67 589 67 494 C67 451 79 416 103 387 C126 358 170 326 233 293 C336 240 374 198 374 135 C376 65 301 28 255 32 C204 32 159 51 120 89 L65 185 L60 185 L60 37 C117 2 179 -15 244 -15 L244 -15 Z " />
<glyph glyph-name="scircumflex" unicode="&#x15d;" horiz-adv-x="346" d="M289 480 L333 480 L211 664 L167 664 L45 480 L87 480 L189 581 L289 480 Z M204 233 C134 271 110 289 110 327 C110 360 136 383 175 383 C200 383 225 372 241 357 L293 299 L298 299 L298 401 C265 414 230 420 192 420 C107 420 50 372 50 305 C50 250 84 214 148 179 C152 177 162 172 177 165 C192 157 204 150 213 144 C231 132 248 114 248 85 C248 50 220 28 179 28 C151 28 120 43 99 64 L49 119 L44 119 L44 14 C87 -2 130 -10 172 -10 C222 -13 311 24 310 107 C310 162 277 192 204 233 L204 233 Z " />
<glyph glyph-name="Scedilla" unicode="&#x15e;" horiz-adv-x="485" d="M441 159 C441 205 425 246 393 283 C384 293 371 304 356 316 C340 328 311 346 269 370 C226 393 197 413 180 429 C146 460 136 491 136 519 C134 586 205 622 247 618 C290 618 326 603 355 573 L410 477 L415 477 L415 623 C352 656 303 665 255 665 C147 665 67 589 67 494 C67 451 79 416 103 387 C126 358 170 326 233 293 C336 240 374 198 374 135 C376 65 301 28 255 32 C204 32 159 51 120 89 L65 185 L60 185 L60 37 C105 9 168 -10 221 -14 L188 -100 L215 -98 C247 -98 270 -114 270 -142 C270 -172 251 -187 213 -187 C196 -187 177 -182 157 -173 L145 -194 C176 -218 208 -230 241 -230 C300 -230 341 -196 341 -145 C341 -100 308 -67 257 -67 L235 -68 L257 -15 C310 -12 354 5 389 38 C424 71 441 111 441 159 L441 159 Z " />
<glyph glyph-name="scedilla" unicode="&#x15f;" horiz-adv-x="346" d="M310 107 C310 162 277 192 204 233 C134 271 110 289 110 327 C110 360 136 383 175 383 C200 383 225 372 241 357 L293 299 L298 299 L298 401 C265 414 230 420 192 420 C107 420 50 372 50 305 C50 250 84 214 148 179 C152 177 162 172 177 165 C192 157 204 150 213 144 C231 132 248 114 248 85 C248 50 220 28 179 28 C151 28 120 43 99 64 L49 119 L44 119 L44 14 C79 1 112 -6 143 -9 L108 -100 L135 -98 C167 -98 190 -114 190 -142 C190 -172 171 -187 133 -187 C116 -187 97 -182 77 -173 L65 -194 C96 -218 128 -230 161 -230 C220 -230 261 -196 261 -145 C261 -100 228 -67 177 -67 L155 -68 L178 -10 C262 -8 315 56 310 107 L310 107 Z " />
<glyph glyph-name="Scaron" unicode="&#x160;" horiz-adv-x="485" d="M391 843 L276 775 L161 843 L120 843 L258 709 L294 709 L432 843 L391 843 Z M244 -15 C299 -15 358 4 394 43 C430 82 441 123 441 159 C441 205 425 246 393 283 C384 293 371 304 356 316 C340 328 311 346 269 370 C226 393 197 413 180 429 C146 460 136 491 136 519 C134 586 205 622 247 618 C290 618 326 603 355 573 L410 477 L415 477 L415 623 C352 656 303 665 255 665 C147 665 67 589 67 494 C67 451 79 416 103 387 C126 358 170 326 233 293 C336 240 374 198 374 135 C376 65 301 28 255 32 C204 32 159 51 120 89 L65 185 L60 185 L60 37 C117 2 179 -15 244 -15 L244 -15 Z " />
<glyph glyph-name="scaron" unicode="&#x161;" horiz-adv-x="346" d="M325 664 L283 664 L181 563 L81 664 L37 664 L159 480 L203 480 L325 664 Z M204 233 C134 271 110 289 110 327 C110 360 136 383 175 383 C200 383 225 372 241 357 L293 299 L298 299 L298 401 C265 414 230 420 192 420 C107 420 50 372 50 305 C50 250 84 214 148 179 C152 177 162 172 177 165 C192 157 204 150 213 144 C231 132 248 114 248 85 C248 50 220 28 179 28 C151 28 120 43 99 64 L49 119 L44 119 L44 14 C87 -2 130 -10 172 -10 C222 -13 311 24 310 107 C310 162 277 192 204 233 L204 233 Z " />
<glyph glyph-name="uni0162" unicode="&#x162;" horiz-adv-x="652" d="M50 480 L55 480 L126 605 L286 605 L286 50 L281 45 L206 45 L206 0 L302 0 L264 -99 L291 -97 C323 -97 346 -113 346 -141 C346 -171 327 -186 289 -186 C272 -186 253 -181 233 -172 L221 -193 C252 -217 284 -229 317 -229 C376 -229 417 -195 417 -144 C417 -99 384 -66 333 -66 L311 -67 L338 0 L446 0 L446 45 L371 45 L366 50 L366 605 L526 605 L596 480 L602 480 L602 650 L50 650 L50 480 Z " />
<glyph glyph-name="uni0163" unicode="&#x163;" horiz-adv-x="316" d="M178 -68 L202 -9 C235 -6 276 10 301 27 L290 48 C269 41 247 37 224 37 C167 37 151 69 151 172 L151 359 L286 359 L286 404 L151 404 L151 535 L146 535 L16 364 L16 359 L76 359 L81 354 L81 117 C81 34 109 -2 166 -9 L131 -100 L158 -98 C190 -98 213 -114 213 -142 C213 -172 194 -187 156 -187 C139 -187 120 -182 100 -173 L88 -194 C119 -218 151 -230 184 -230 C243 -230 284 -196 284 -145 C284 -100 251 -67 200 -67 L178 -68 Z " />
<glyph glyph-name="Tcaron" unicode="&#x164;" horiz-adv-x="652" d="M437 841 L322 773 L207 841 L166 841 L304 707 L340 707 L478 841 L437 841 Z M446 0 L446 45 L371 45 L366 50 L366 605 L526 605 L596 480 L602 480 L602 650 L50 650 L50 480 L55 480 L126 605 L286 605 L286 50 L281 45 L206 45 L206 0 L446 0 Z " />
<glyph glyph-name="tcaron" unicode="&#x165;" horiz-adv-x="317" d="M242 473 L309 666 L235 666 L207 473 L242 473 Z M186 -10 C229 -10 273 8 301 27 L290 48 C269 41 247 37 224 37 C167 37 151 69 151 172 L151 359 L286 359 L286 404 L151 404 L151 535 L146 535 L16 364 L16 359 L76 359 L81 354 L81 117 C81 25 113 -10 186 -10 L186 -10 Z " />
<glyph glyph-name="Tbar" unicode="&#x166;" horiz-adv-x="652" d="M50 480 L55 480 L126 605 L286 605 L286 357 L175 357 L175 312 L286 312 L286 50 L281 45 L206 45 L206 0 L446 0 L446 45 L371 45 L366 50 L366 312 L478 312 L478 357 L366 357 L366 605 L526 605 L596 480 L602 480 L602 650 L50 650 L50 480 Z " />
<glyph glyph-name="tbar" unicode="&#x167;" horiz-adv-x="316" d="M290 48 C269 41 247 37 224 37 C167 37 151 69 151 172 L151 206 L286 206 L286 251 L151 251 L151 359 L286 359 L286 404 L151 404 L151 535 L146 535 L16 364 L16 359 L76 359 L81 354 L81 251 L20 251 L20 206 L81 206 L81 117 C81 25 113 -10 186 -10 C229 -10 273 8 301 27 L290 48 L290 48 Z " />
<glyph glyph-name="Utilde" unicode="&#x168;" horiz-adv-x="750" d="M460 725 C503 725 536 762 549 813 L523 824 C510 795 491 780 468 780 C457 780 441 786 422 798 C382 821 365 827 341 827 C298 827 265 790 253 739 L279 728 C291 757 309 772 334 772 C347 772 366 764 392 749 C418 733 441 725 460 725 L460 725 Z M379 -15 C540 -15 625 80 625 260 L625 590 L710 640 L710 650 L480 650 L480 640 L570 590 L570 267 C570 110 516 35 385 35 C261 35 208 108 208 267 L208 590 L298 640 L298 650 L40 650 L40 640 L125 590 L125 261 C125 64 199 -15 379 -15 L379 -15 Z " />
<glyph glyph-name="utilde" unicode="&#x169;" horiz-adv-x="521" d="M183 568 C187 568 193 567 202 565 C210 563 226 555 249 541 C272 526 292 519 310 519 C351 519 384 555 397 607 L371 618 C358 589 343 574 324 574 C313 574 297 580 277 592 C237 615 220 621 196 621 C153 621 120 584 108 533 L134 522 C147 553 163 568 183 568 L183 568 Z M425 50 L425 417 L419 420 L288 357 L288 352 L355 320 L355 68 C313 59 278 54 249 54 C181 54 162 83 162 170 L162 416 L156 419 L25 356 L25 351 L92 319 L92 107 C92 29 134 -10 217 -10 C252 -10 294 9 355 48 L355 0 L490 0 L490 45 L430 45 L425 50 Z " />
<glyph glyph-name="Umacron" unicode="&#x16a;" horiz-adv-x="750" d="M524 740 L524 792 L260 792 L260 740 L524 740 Z M379 -15 C540 -15 625 80 625 260 L625 590 L710 640 L710 650 L480 650 L480 640 L570 590 L570 267 C570 110 516 35 385 35 C261 35 208 108 208 267 L208 590 L298 640 L298 650 L40 650 L40 640 L125 590 L125 261 C125 64 199 -15 379 -15 L379 -15 Z " />
<glyph glyph-name="umacron" unicode="&#x16b;" horiz-adv-x="521" d="M118 597 L118 545 L382 545 L382 597 L118 597 Z M425 50 L425 417 L419 420 L288 357 L288 352 L355 320 L355 68 C313 59 278 54 249 54 C181 54 162 83 162 170 L162 416 L156 419 L25 356 L25 351 L92 319 L92 107 C92 29 134 -10 217 -10 C252 -10 294 9 355 48 L355 0 L490 0 L490 45 L430 45 L425 50 Z " />
<glyph glyph-name="Ubreve" unicode="&#x16c;" horiz-adv-x="750" d="M397 714 C499 711 531 799 528 847 L495 847 C491 796 458 770 397 770 C338 770 303 796 299 847 L266 847 C262 764 330 708 397 714 L397 714 Z M379 -15 C540 -15 625 80 625 260 L625 590 L710 640 L710 650 L480 650 L480 640 L570 590 L570 267 C570 110 516 35 385 35 C261 35 208 108 208 267 L208 590 L298 640 L298 650 L40 650 L40 640 L125 590 L125 261 C125 64 199 -15 379 -15 L379 -15 Z " />
<glyph glyph-name="ubreve" unicode="&#x16d;" horiz-adv-x="521" d="M251 490 C334 490 382 555 382 643 L347 643 C342 586 308 551 251 551 C194 551 160 586 155 643 L120 643 C120 555 168 490 251 490 L251 490 Z M425 50 L425 417 L419 420 L288 357 L288 352 L355 320 L355 68 C313 59 278 54 249 54 C181 54 162 83 162 170 L162 416 L156 419 L25 356 L25 351 L92 319 L92 107 C92 29 134 -10 217 -10 C252 -10 294 9 355 48 L355 0 L490 0 L490 45 L430 45 L425 50 Z " />
<glyph glyph-name="Uring" unicode="&#x16e;" horiz-adv-x="750" d="M394 687 C453 687 496 726 496 782 C495 834 453 870 400 870 C334 872 296 815 300 774 C298 715 357 684 394 687 L394 687 Z M401 713 C366 713 346 742 346 786 C346 818 363 843 395 843 C428 843 449 812 449 771 C449 732 430 713 401 713 L401 713 Z M379 -15 C540 -15 625 80 625 260 L625 590 L710 640 L710 650 L480 650 L480 640 L570 590 L570 267 C570 110 516 35 385 35 C261 35 208 108 208 267 L208 590 L298 640 L298 650 L40 650 L40 640 L125 590 L125 261 C125 64 199 -15 379 -15 L379 -15 Z " />
<glyph glyph-name="uring" unicode="&#x16f;" horiz-adv-x="521" d="M248 479 C317 477 357 535 353 574 C352 626 309 662 254 662 C187 664 147 607 151 566 C150 507 210 476 248 479 L248 479 Z M249 636 C281 636 300 606 300 563 C300 524 283 504 255 504 C222 504 203 534 203 578 C203 611 218 636 249 636 L249 636 Z M425 50 L425 417 L419 420 L288 357 L288 352 L355 320 L355 68 C313 59 278 54 249 54 C181 54 162 83 162 170 L162 416 L156 419 L25 356 L25 351 L92 319 L92 107 C92 29 134 -10 217 -10 C252 -10 294 9 355 48 L355 0 L490 0 L490 45 L430 45 L425 50 Z " />
<glyph glyph-name="Uhungarumlaut" unicode="&#x170;" horiz-adv-x="750" d="M305 706 L506 833 L506 840 L386 840 L264 706 L305 706 Z M475 706 L676 833 L676 840 L556 840 L434 706 L475 706 Z M379 -15 C540 -15 625 80 625 260 L625 590 L710 640 L710 650 L480 650 L480 640 L570 590 L570 267 C570 110 516 35 385 35 C261 35 208 108 208 267 L208 590 L298 640 L298 650 L40 650 L40 640 L125 590 L125 261 C125 64 199 -15 379 -15 L379 -15 Z " />
<glyph glyph-name="uhungarumlaut" unicode="&#x171;" horiz-adv-x="521" d="M326 664 L226 664 L134 480 L169 480 L326 656 L326 664 Z M486 656 L486 664 L386 664 L294 480 L329 480 L486 656 Z M425 50 L425 417 L419 420 L288 357 L288 352 L355 320 L355 68 C313 59 278 54 249 54 C181 54 162 83 162 170 L162 416 L156 419 L25 356 L25 351 L92 319 L92 107 C92 29 134 -10 217 -10 C252 -10 294 9 355 48 L355 0 L490 0 L490 45 L430 45 L425 50 Z " />
<glyph glyph-name="Uogonek" unicode="&#x172;" horiz-adv-x="750" d="M480 640 L570 590 L570 267 C570 110 516 35 387 35 C262 35 208 108 208 267 L208 590 L298 640 L298 650 L40 650 L40 640 L125 590 L125 261 C131 65 182 -12 390 -15 L400 -15 C338 -67 307 -115 307 -158 C307 -194 332 -230 379 -230 C415 -230 442 -212 482 -181 L471 -160 C454 -169 439 -173 426 -173 C397 -173 379 -156 379 -121 C379 -76 417 -29 469 -4 C533 27 575 63 595 103 C615 142 625 195 625 260 L625 590 L710 640 L710 650 L480 650 L480 640 Z " />
<glyph glyph-name="uogonek" unicode="&#x173;" horiz-adv-x="518" d="M487 45 L427 45 L422 50 L422 417 L416 420 L285 357 L285 352 L352 320 L352 68 C310 59 275 54 246 54 C178 54 159 83 159 170 L159 416 L153 419 L22 356 L22 351 L89 319 L89 107 C89 29 131 -10 214 -10 C249 -10 291 9 352 48 L352 0 L402 0 C330 -43 289 -124 293 -158 C293 -194 318 -230 365 -230 C401 -230 428 -212 468 -181 L457 -160 C440 -169 424 -173 410 -173 C383 -173 365 -154 365 -121 C364 -57 435 6 487 0 L487 45 Z " />
<glyph glyph-name="Wcircumflex" unicode="&#x174;" horiz-adv-x="932" d="M594 706 L635 706 L497 840 L461 840 L323 706 L364 706 L479 774 L594 706 Z M694 640 L784 590 L648 99 L646 99 L501 650 L417 650 L447 548 L312 99 L310 99 L182 590 L272 640 L272 650 L10 650 L10 640 L95 590 L278 -5 L324 -5 L472 465 L610 -5 L656 -5 L837 590 L922 640 L922 650 L694 650 L694 640 Z " />
<glyph glyph-name="wcircumflex" unicode="&#x175;" horiz-adv-x="655" d="M445 480 L489 480 L367 664 L323 664 L201 480 L243 480 L345 581 L445 480 Z M486 401 L558 355 L464 87 L460 87 L348 414 L279 378 L321 269 L246 87 L242 87 L135 354 L203 401 L203 404 L-5 404 L-5 399 L53 354 L209 -10 L241 -10 L338 225 L429 -10 L462 -10 L603 354 L660 401 L660 404 L486 404 L486 401 Z " />
<glyph glyph-name="Ycircumflex" unicode="&#x176;" horiz-adv-x="644" d="M225 706 L340 774 L455 706 L496 706 L358 840 L322 840 L184 706 L225 706 Z M442 0 L442 45 L367 45 L362 50 L362 259 L549 590 L634 640 L634 650 L406 650 L406 640 L496 590 L341 305 L339 305 L186 590 L276 640 L276 650 L10 650 L10 640 L95 591 L282 255 L282 50 L277 45 L202 45 L202 0 L442 0 Z " />
<glyph glyph-name="ycircumflex" unicode="&#x177;" horiz-adv-x="467" d="M344 480 L388 480 L266 664 L222 664 L100 480 L142 480 L244 581 L344 480 Z M299 399 L370 354 L254 57 L131 353 L196 401 L196 404 L-5 404 L-5 399 L52 354 L220 -36 L75 -213 L161 -250 L257 -27 L418 354 L472 401 L472 404 L299 404 L299 399 Z " />
<glyph glyph-name="Ydieresis" unicode="&#x178;" horiz-adv-x="644" d="M256 725 C284 725 310 751 310 779 C310 808 284 834 256 834 C227 834 201 808 201 779 C201 751 227 725 256 725 L256 725 Z M435 725 C463 725 489 751 489 779 C489 808 463 834 435 834 C406 834 380 808 380 779 C380 751 406 725 435 725 L435 725 Z M442 0 L442 45 L367 45 L362 50 L362 259 L549 590 L634 640 L634 650 L406 650 L406 640 L496 590 L341 305 L339 305 L186 590 L276 640 L276 650 L10 650 L10 640 L95 591 L282 255 L282 50 L277 45 L202 45 L202 0 L442 0 Z " />
<glyph glyph-name="Zacute" unicode="&#x179;" horiz-adv-x="560" d="M462 840 L342 840 L220 706 L261 706 L462 833 L462 840 Z M433 45 L156 45 L501 637 L501 650 L62 650 L62 470 L67 470 L147 605 L389 605 L45 13 L45 0 L515 0 L515 185 L510 185 L433 45 Z " />
<glyph glyph-name="zacute" unicode="&#x17a;" horiz-adv-x="399" d="M201 480 L358 656 L358 664 L258 664 L166 480 L201 480 Z M373 0 L373 129 L368 129 L305 45 L131 45 L366 388 L366 404 L44 404 L44 275 L49 275 L111 359 L260 359 L260 354 L28 10 L28 0 L373 0 Z " />
<glyph glyph-name="Zdotaccent" unicode="&#x17b;" horiz-adv-x="560" d="M290 725 C318 725 344 751 344 779 C344 808 318 834 290 834 C261 834 235 808 235 779 C235 751 261 725 290 725 L290 725 Z M433 45 L156 45 L501 637 L501 650 L62 650 L62 470 L67 470 L147 605 L389 605 L45 13 L45 0 L515 0 L515 185 L510 185 L433 45 Z " />
<glyph glyph-name="zdotaccent" unicode="&#x17c;" horiz-adv-x="399" d="M216 524 C244 524 270 550 270 578 C270 607 244 633 216 633 C187 633 161 607 161 578 C161 550 187 524 216 524 L216 524 Z M373 0 L373 129 L368 129 L305 45 L131 45 L366 388 L366 404 L44 404 L44 275 L49 275 L111 359 L260 359 L260 354 L28 10 L28 0 L373 0 Z " />
<glyph glyph-name="Zcaron" unicode="&#x17d;" horiz-adv-x="560" d="M441 841 L400 841 L285 773 L170 841 L129 841 L267 707 L303 707 L441 841 Z M433 45 L156 45 L501 637 L501 650 L62 650 L62 470 L67 470 L147 605 L389 605 L45 13 L45 0 L515 0 L515 185 L510 185 L433 45 Z " />
<glyph glyph-name="zcaron" unicode="&#x17e;" horiz-adv-x="399" d="M358 664 L316 664 L214 563 L114 664 L70 664 L192 480 L236 480 L358 664 Z M305 45 L131 45 L366 388 L366 404 L44 404 L44 275 L49 275 L111 359 L260 359 L260 354 L28 10 L28 0 L373 0 L373 129 L368 129 L305 45 Z " />
<glyph glyph-name="longs" unicode="&#x17f;" horiz-adv-x="315" d="M246 0 L246 45 L171 45 L166 50 L166 530 C166 625 193 672 246 672 C268 672 289 665 310 650 L365 580 L370 580 L370 700 C342 711 311 717 277 717 C148 717 96 634 96 425 L91 420 L31 420 L31 375 L91 375 L96 369 L96 50 L91 45 L31 45 L31 0 L246 0 Z " />
<glyph glyph-name="florin" unicode="&#x192;" horiz-adv-x="386" d="M307 521 C212 519 179 452 165 317 L165 314 L103 314 L103 276 L160 276 L133 30 C128 -13 123 -40 116 -51 C109 -62 100 -68 89 -67 C76 -67 64 -56 45 -35 L14 -1 L9 -1 L9 -94 C31 -102 53 -106 74 -106 C165 -103 184 -36 204 97 L226 276 L327 276 L327 314 L230 314 L236 362 C247 451 259 483 291 483 C304 483 321 471 330 459 L368 416 L373 416 L373 509 C349 518 327 522 307 521 L307 521 Z " />
<glyph glyph-name="Aringacute" unicode="&#x1fa;" horiz-adv-x="669" d="M540 1042 L420 1042 L298 908 L339 908 L540 1035 L540 1042 Z M343 687 C402 687 445 726 445 782 C444 834 402 870 349 870 C283 872 245 815 249 774 C247 715 306 684 343 687 L343 687 Z M344 843 C377 843 398 812 398 771 C398 732 379 713 350 713 C315 713 295 742 295 786 C295 818 312 843 344 843 L344 843 Z M582 50 L363 655 L325 655 L98 50 L93 45 L24 45 L24 0 L232 0 L232 45 L158 45 L153 50 L217 228 L436 228 L497 50 L492 45 L444 45 L444 0 L645 0 L645 45 L587 45 L582 50 Z M328 539 L330 539 L421 273 L233 273 L328 539 Z " />
<glyph glyph-name="aringacute" unicode="&#x1fb;" horiz-adv-x="431" d="M375 840 L255 840 L133 706 L174 706 L375 833 L375 840 Z M191 478 C260 476 300 534 296 573 C295 625 252 661 197 661 C130 663 90 606 94 565 C93 506 153 475 191 478 L191 478 Z M192 635 C224 635 243 605 243 562 C243 523 226 503 198 503 C165 503 146 533 146 577 C146 610 161 635 192 635 L192 635 Z M337 50 L337 289 C341 384 259 423 203 420 C142 420 94 397 47 352 L60 328 C99 353 137 366 176 366 C245 366 267 330 267 249 L267 218 C112 211 35 167 35 86 C33 21 94 -13 135 -10 C173 -10 217 7 267 41 L267 0 L402 0 L402 45 L342 45 L337 50 Z M171 42 C132 42 106 62 106 99 C106 152 151 178 267 186 L267 59 C235 48 203 42 171 42 L171 42 Z " />
<glyph glyph-name="AEacute" unicode="&#x1fc;" horiz-adv-x="855" d="M728 840 L608 840 L486 706 L527 706 L728 833 L728 840 Z M722 45 L525 45 L525 308 L660 308 L665 303 L665 228 L710 228 L710 433 L665 433 L665 358 L660 353 L525 353 L525 605 L711 605 L777 485 L782 485 L782 650 L297 650 L297 640 L382 590 L99 50 L94 45 L24 45 L24 0 L234 0 L234 45 L159 45 L154 50 L286 308 L445 308 L445 50 L440 45 L365 45 L365 0 L800 0 L810 165 L805 165 L722 45 Z M435 599 L445 599 L445 353 L309 353 L435 599 Z " />
<glyph glyph-name="aeacute" unicode="&#x1fd;" horiz-adv-x="665" d="M490 664 L390 664 L298 480 L333 480 L490 656 L490 664 Z M625 239 C625 352 565 420 467 420 C418 420 363 397 326 354 C306 397 262 420 206 420 C145 420 97 397 50 352 L63 328 C102 353 138 366 173 366 C245 366 270 330 270 249 L270 238 C98 229 35 185 35 94 C33 26 100 -14 145 -10 C198 -10 251 9 306 69 C341 20 397 -10 465 -10 C522 -10 583 12 620 48 L609 69 C565 46 521 44 506 44 C405 44 354 101 348 205 L623 205 L625 239 L625 239 Z M460 379 C516 379 545 333 547 241 L347 241 C346 314 397 382 460 379 L460 379 Z M176 40 C131 40 105 64 105 109 C105 172 150 198 270 206 L270 194 C270 159 277 128 290 99 C261 64 209 40 176 40 L176 40 Z " />
<glyph glyph-name="Oslashacute" unicode="&#x1fe;" horiz-adv-x="728" d="M559 840 L439 840 L317 706 L358 706 L559 833 L559 840 Z M616 650 L571 599 C518 643 453 665 376 665 C194 665 50 529 50 321 C50 225 77 144 124 88 L47 0 L109 0 L156 54 C208 10 280 -15 357 -15 C552 -15 678 127 678 338 C678 429 652 509 605 565 L679 650 L616 650 Z M134 335 C134 511 231 620 366 620 C429 620 485 593 525 546 L175 146 C148 197 134 260 134 335 L134 335 Z M593 320 C593 129 500 30 366 30 C301 30 241 57 201 105 L552 505 C579 454 593 392 593 320 L593 320 Z " />
<glyph glyph-name="oslashacute" unicode="&#x1ff;" horiz-adv-x="490" d="M394 664 L294 664 L202 480 L237 480 L394 656 L394 664 Z M401 430 L365 388 C334 408 291 420 251 420 C121 420 40 316 40 197 C40 140 55 93 86 57 L22 -20 L83 -20 L121 25 C152 4 198 -10 241 -10 C368 -10 450 95 450 213 C450 272 434 320 401 357 L462 430 L401 430 Z M117 223 C117 330 171 380 235 380 C269 380 298 366 323 337 L138 118 C124 150 117 185 117 223 L117 223 Z M372 188 C372 85 326 30 254 30 C219 30 187 47 164 76 L350 296 C365 265 372 229 372 188 L372 188 Z " />
<glyph glyph-name="uni0218" unicode="&#x218;" horiz-adv-x="485" d="M393 283 C384 293 371 304 356 316 C340 328 311 346 269 370 C226 393 197 413 180 429 C146 460 136 491 136 519 C134 586 205 622 247 618 C290 618 326 603 355 573 L410 477 L415 477 L415 623 C352 656 303 665 255 665 C147 665 67 589 67 494 C67 451 79 416 103 387 C126 358 170 326 233 293 C336 240 374 198 374 135 C376 65 301 28 255 32 C204 32 159 51 120 89 L65 185 L60 185 L60 37 C117 2 179 -15 244 -15 C299 -15 358 4 394 43 C430 82 441 123 441 159 C441 205 425 246 393 283 L393 283 Z M249 -60 C224 -60 203 -79 203 -104 C203 -131 225 -148 249 -148 L253 -148 L253 -152 C253 -175 233 -201 198 -214 L209 -233 C264 -216 299 -168 299 -120 C299 -84 278 -60 249 -60 L249 -60 Z " />
<glyph glyph-name="uni0219" unicode="&#x219;" horiz-adv-x="346" d="M204 233 C134 271 110 289 110 327 C110 360 136 383 175 383 C200 383 225 372 241 357 L293 299 L298 299 L298 401 C265 414 230 420 192 420 C107 420 50 372 50 305 C50 250 84 214 148 179 C152 177 162 172 177 165 C192 157 204 150 213 144 C231 132 248 114 248 85 C248 50 220 28 179 28 C151 28 120 43 99 64 L49 119 L44 119 L44 14 C87 -2 130 -10 172 -10 C222 -13 311 24 310 107 C310 162 277 192 204 233 L204 233 Z M167 -60 C142 -60 121 -79 121 -104 C121 -131 143 -148 167 -148 L171 -148 L171 -152 C171 -175 151 -201 116 -214 L127 -233 C182 -216 217 -168 217 -120 C217 -84 196 -60 167 -60 L167 -60 Z " />
<glyph glyph-name="uni021A" unicode="&#x21a;" horiz-adv-x="652" d="M50 480 L55 480 L126 605 L286 605 L286 50 L281 45 L206 45 L206 0 L446 0 L446 45 L371 45 L366 50 L366 605 L526 605 L596 480 L602 480 L602 650 L50 650 L50 480 Z M328 -60 C303 -60 282 -79 282 -104 C282 -131 304 -148 328 -148 L332 -148 L332 -152 C332 -175 312 -201 277 -214 L288 -233 C343 -216 378 -168 378 -120 C378 -84 357 -60 328 -60 L328 -60 Z " />
<glyph glyph-name="uni021B" unicode="&#x21b;" horiz-adv-x="316" d="M290 48 C269 41 247 37 224 37 C167 37 151 69 151 172 L151 359 L286 359 L286 404 L151 404 L151 535 L146 535 L16 364 L16 359 L76 359 L81 354 L81 117 C81 25 113 -10 186 -10 C229 -10 273 8 301 27 L290 48 Z M172 -60 C147 -60 126 -79 126 -104 C126 -131 148 -148 172 -148 L176 -148 L176 -152 C176 -175 156 -201 121 -214 L132 -233 C187 -216 222 -168 222 -120 C222 -84 201 -60 172 -60 L172 -60 Z " />
<glyph glyph-name="circumflex" unicode="&#x2c6;" horiz-adv-x="324" d="M184 664 L140 664 L18 480 L60 480 L162 581 L262 480 L306 480 L184 664 Z " />
<glyph glyph-name="caron" unicode="&#x2c7;" horiz-adv-x="327" d="M164 563 L64 664 L20 664 L142 480 L186 480 L308 664 L266 664 L164 563 Z " />
<glyph glyph-name="uni02C9" unicode="&#x2c9;" horiz-adv-x="425" d="M332 545 L332 597 L68 597 L68 545 L332 545 Z " />
<glyph glyph-name="breve" unicode="&#x2d8;" horiz-adv-x="327" d="M164 490 C247 490 295 555 295 643 L260 643 C255 586 221 551 164 551 C107 551 73 586 68 643 L33 643 C33 555 81 490 164 490 L164 490 Z " />
<glyph glyph-name="dotaccent" unicode="&#x2d9;" horiz-adv-x="247" d="M115 524 C143 524 169 550 169 578 C169 607 143 633 115 633 C86 633 60 607 60 578 C60 550 86 524 115 524 L115 524 Z " />
<glyph glyph-name="ring" unicode="&#x2da;" horiz-adv-x="236" d="M114 479 C183 477 223 535 219 574 C218 626 175 662 120 662 C53 664 13 607 17 566 C16 507 76 476 114 479 L114 479 Z M121 504 C88 504 69 534 69 578 C69 611 84 636 115 636 C147 636 166 606 166 563 C166 524 149 504 121 504 L121 504 Z " />
<glyph glyph-name="ogonek" unicode="&#x2db;" horiz-adv-x="240" d="M108 -230 C144 -230 171 -212 211 -181 L200 -160 C181 -169 165 -173 151 -173 C124 -173 108 -156 108 -121 C108 -76 141 -20 185 12 L166 15 C80 -37 31 -119 36 -158 C36 -194 61 -230 108 -230 L108 -230 Z " />
<glyph glyph-name="tilde" unicode="&#x2dc;" horiz-adv-x="349" d="M232 519 C273 519 306 555 319 607 L293 618 C280 589 265 574 246 574 C235 574 219 580 199 592 C159 615 142 621 118 621 C75 621 42 584 30 533 L56 522 C69 553 85 568 105 568 C109 568 115 567 124 565 C132 563 148 555 171 541 C194 526 214 519 232 519 L232 519 Z " />
<glyph glyph-name="hungarumlaut" unicode="&#x2dd;" horiz-adv-x="382" d="M50 480 L207 656 L207 664 L107 664 L15 480 L50 480 Z M210 480 L367 656 L367 664 L267 664 L175 480 L210 480 Z " />
<glyph glyph-name="uni0326" unicode="&#x326;" d="M-65 -60 C-90 -60 -111 -79 -111 -104 C-111 -131 -89 -148 -65 -148 L-61 -148 L-61 -152 C-61 -175 -81 -201 -116 -214 L-105 -233 C-50 -216 -15 -168 -15 -120 C-15 -84 -36 -60 -65 -60 L-65 -60 Z " />
<glyph glyph-name="uni0394" unicode="&#x394;" horiz-adv-x="669" d="M313 650 L10 0 L659 0 L379 650 L313 650 Z M544 60 L97 60 L327 563 L544 60 Z " />
<glyph glyph-name="uni03A9" unicode="&#x3a9;" horiz-adv-x="768" d="M650 45 L493 45 C608 127 681 258 681 374 C681 541 573 665 382 665 C221 665 77 528 77 360 C77 229 141 134 273 45 L118 45 L55 165 L45 165 L45 0 L333 0 L333 45 C235 119 165 221 165 350 C165 432 185 498 225 547 C265 596 317 620 382 620 C514 620 593 516 593 377 C593 237 538 124 435 45 L435 0 L723 0 L723 165 L713 165 L650 45 Z " />
<glyph glyph-name="uni03BC" unicode="&#x3bc;" horiz-adv-x="519" d="M420 50 L420 417 L414 420 L283 357 L283 352 L350 320 L350 68 C308 59 273 54 244 54 C176 54 157 83 157 170 L157 416 L151 419 L20 356 L20 351 L87 319 L87 -230 L177 -230 L130 10 C151 -3 175 -10 204 -10 C247 -10 289 9 350 48 L350 0 L489 0 L489 45 L425 45 L420 50 Z " />
<glyph glyph-name="pi" unicode="&#x3c0;" horiz-adv-x="520" d="M489 43 C478 39 467 37 455 37 C428 37 412 58 404 121 L378 340 L465 340 L465 410 L30 410 L30 340 L107 340 L107 0 L177 0 L177 340 L309 340 L335 117 C346 26 371 -10 428 -10 C449 -10 473 1 500 22 L489 43 L489 43 Z " />
<glyph glyph-name="Wgrave" unicode="&#x1e80;" horiz-adv-x="932" d="M406 839 L286 839 L286 832 L487 705 L528 705 L406 839 Z M694 640 L784 590 L648 99 L646 99 L501 650 L417 650 L447 548 L312 99 L310 99 L182 590 L272 640 L272 650 L10 650 L10 640 L95 590 L278 -5 L324 -5 L472 465 L610 -5 L656 -5 L837 590 L922 640 L922 650 L694 650 L694 640 Z " />
<glyph glyph-name="wgrave" unicode="&#x1e81;" horiz-adv-x="655" d="M277 664 L177 664 L177 656 L334 480 L369 480 L277 664 Z M486 401 L558 355 L464 87 L460 87 L348 414 L279 378 L321 269 L246 87 L242 87 L135 354 L203 401 L203 404 L-5 404 L-5 399 L53 354 L209 -10 L241 -10 L338 225 L429 -10 L462 -10 L603 354 L660 401 L660 404 L486 404 L486 401 Z " />
<glyph glyph-name="Wacute" unicode="&#x1e82;" horiz-adv-x="932" d="M640 840 L520 840 L398 706 L439 706 L640 833 L640 840 Z M694 640 L784 590 L648 99 L646 99 L501 650 L417 650 L447 548 L312 99 L310 99 L182 590 L272 640 L272 650 L10 650 L10 640 L95 590 L278 -5 L324 -5 L472 465 L610 -5 L656 -5 L837 590 L922 640 L922 650 L694 650 L694 640 Z " />
<glyph glyph-name="wacute" unicode="&#x1e83;" horiz-adv-x="655" d="M481 664 L381 664 L289 480 L324 480 L481 656 L481 664 Z M486 401 L558 355 L464 87 L460 87 L348 414 L279 378 L321 269 L246 87 L242 87 L135 354 L203 401 L203 404 L-5 404 L-5 399 L53 354 L209 -10 L241 -10 L338 225 L429 -10 L462 -10 L603 354 L660 401 L660 404 L486 404 L486 401 Z " />
<glyph glyph-name="Wdieresis" unicode="&#x1e84;" horiz-adv-x="932" d="M390 725 C418 725 444 751 444 779 C444 808 418 834 390 834 C361 834 335 808 335 779 C335 751 361 725 390 725 L390 725 Z M569 725 C597 725 623 751 623 779 C623 808 597 834 569 834 C540 834 514 808 514 779 C514 751 540 725 569 725 L569 725 Z M694 640 L784 590 L648 99 L646 99 L501 650 L417 650 L447 548 L312 99 L310 99 L182 590 L272 640 L272 650 L10 650 L10 640 L95 590 L278 -5 L324 -5 L472 465 L610 -5 L656 -5 L837 590 L922 640 L922 650 L694 650 L694 640 Z " />
<glyph glyph-name="wdieresis" unicode="&#x1e85;" horiz-adv-x="655" d="M263 524 C291 524 317 550 317 578 C317 607 291 633 263 633 C234 633 208 607 208 578 C208 550 234 524 263 524 L263 524 Z M448 524 C476 524 502 550 502 578 C502 607 476 633 448 633 C419 633 393 607 393 578 C393 550 419 524 448 524 L448 524 Z M486 401 L558 355 L464 87 L460 87 L348 414 L279 378 L321 269 L246 87 L242 87 L135 354 L203 401 L203 404 L-5 404 L-5 399 L53 354 L209 -10 L241 -10 L338 225 L429 -10 L462 -10 L603 354 L660 401 L660 404 L486 404 L486 401 Z " />
<glyph glyph-name="Ygrave" unicode="&#x1ef2;" horiz-adv-x="644" d="M387 705 L265 839 L145 839 L145 832 L346 705 L387 705 Z M442 0 L442 45 L367 45 L362 50 L362 259 L549 590 L634 640 L634 650 L406 650 L406 640 L496 590 L341 305 L339 305 L186 590 L276 640 L276 650 L10 650 L10 640 L95 591 L282 255 L282 50 L277 45 L202 45 L202 0 L442 0 Z " />
<glyph glyph-name="ygrave" unicode="&#x1ef3;" horiz-adv-x="467" d="M194 664 L94 664 L94 656 L251 480 L286 480 L194 664 Z M299 399 L370 354 L254 57 L131 353 L196 401 L196 404 L-5 404 L-5 399 L52 354 L220 -36 L75 -213 L161 -250 L257 -27 L418 354 L472 401 L472 404 L299 404 L299 399 Z " />
<glyph glyph-name="uni2009" unicode="&#x2009;" horiz-adv-x="100" d="" />
<glyph glyph-name="endash" unicode="&#x2013;" horiz-adv-x="500" d="M450 186 L450 231 L50 231 L50 186 L450 186 Z " />
<glyph glyph-name="emdash" unicode="&#x2014;" horiz-adv-x="1000" d="M950 186 L950 231 L50 231 L50 186 L950 186 Z " />
<glyph glyph-name="quoteleft" unicode="&#x2018;" horiz-adv-x="163" d="M82 619 C82 656 109 687 153 703 L140 727 C59 699 20 642 20 579 C20 534 43 502 83 502 C114 502 139 529 139 561 C139 593 116 619 85 619 L82 619 Z " />
<glyph glyph-name="quoteright" unicode="&#x2019;" horiz-adv-x="153" d="M80 727 C49 727 24 700 24 668 C24 636 47 610 78 610 L81 610 C81 573 54 542 10 526 L23 502 C104 530 143 587 143 650 C143 695 120 727 80 727 L80 727 Z " />
<glyph glyph-name="quotesinglbase" unicode="&#x201a;" horiz-adv-x="180" d="M92 102 C61 102 36 75 36 43 C36 11 59 -15 90 -15 L93 -15 C93 -52 66 -83 22 -99 L35 -123 C116 -95 155 -38 155 25 C155 70 132 102 92 102 L92 102 Z " />
<glyph glyph-name="quotedblleft" unicode="&#x201c;" horiz-adv-x="335" d="M140 727 C59 699 20 642 20 579 C20 534 43 502 83 502 C114 502 139 529 139 561 C139 593 116 619 85 619 L82 619 C82 656 109 687 153 703 L140 727 Z M254 619 C254 656 281 687 325 703 L312 727 C231 699 192 642 192 579 C192 534 215 502 255 502 C286 502 311 529 311 561 C311 593 288 619 257 619 L254 619 Z " />
<glyph glyph-name="quotedblright" unicode="&#x201d;" horiz-adv-x="325" d="M80 727 C49 727 24 700 24 668 C24 636 47 610 78 610 L81 610 C81 573 54 542 10 526 L23 502 C104 530 143 587 143 650 C143 695 120 727 80 727 L80 727 Z M252 727 C221 727 196 700 196 668 C196 636 219 610 250 610 L253 610 C253 573 226 542 182 526 L195 502 C276 530 315 587 315 650 C315 695 292 727 252 727 L252 727 Z " />
<glyph glyph-name="quotedblbase" unicode="&#x201e;" horiz-adv-x="352" d="M92 102 C61 102 36 75 36 43 C36 11 59 -15 90 -15 L93 -15 C93 -52 66 -83 22 -99 L35 -123 C116 -95 155 -38 155 25 C155 70 132 102 92 102 L92 102 Z M264 102 C233 102 208 75 208 43 C208 11 231 -15 262 -15 L265 -15 C265 -52 238 -83 194 -99 L207 -123 C288 -95 327 -38 327 25 C327 70 304 102 264 102 L264 102 Z " />
<glyph glyph-name="dagger" unicode="&#x2020;" horiz-adv-x="540" d="M289 411 L317 650 L222 650 L250 412 L30 439 L30 344 L249 371 L222 219 L252 -230 L288 -230 L317 218 L290 371 L510 344 L510 439 L289 411 Z " />
<glyph glyph-name="daggerdbl" unicode="&#x2021;" horiz-adv-x="541" d="M290 411 L318 650 L223 650 L251 412 L31 439 L31 344 L250 371 L223 210 L250 50 L30 77 L30 -18 L251 10 L223 -229 L318 -229 L290 9 L510 -18 L510 77 L291 50 L318 209 L291 371 L511 344 L511 439 L290 411 Z " />
<glyph glyph-name="bullet" unicode="&#x2022;" horiz-adv-x="249" d="M125 231 C183 229 224 293 219 325 C223 359 184 421 125 420 C66 421 26 359 30 325 C25 293 67 229 125 231 L125 231 Z " />
<glyph glyph-name="ellipsis" unicode="&#x2026;" horiz-adv-x="557" d="M98 -15 C130 -15 157 11 157 43 C157 75 130 102 98 102 C66 102 40 75 40 43 C40 11 66 -15 98 -15 L98 -15 Z M278 -15 C310 -15 337 11 337 43 C337 75 310 102 278 102 C246 102 220 75 220 43 C220 11 246 -15 278 -15 L278 -15 Z M458 -15 C490 -15 517 11 517 43 C517 75 490 102 458 102 C426 102 400 75 400 43 C400 11 426 -15 458 -15 L458 -15 Z " />
<glyph glyph-name="perthousand" unicode="&#x2030;" horiz-adv-x="821" d="M153 267 C198 263 267 300 265 378 C265 447 220 491 153 491 C109 495 38 458 40 378 C40 309 84 267 153 267 L153 267 Z M116 0 L504 480 L448 480 L60 0 L116 0 Z M153 294 C118 294 99 326 99 379 C99 431 118 463 153 463 C188 463 206 430 206 378 C206 326 188 294 153 294 L153 294 Z M413 -11 C457 -15 528 22 526 100 C526 169 481 213 414 213 C338 215 297 149 301 100 C301 31 345 -11 413 -11 L413 -11 Z M669 -11 C714 -15 783 22 781 100 C781 171 737 213 670 213 C625 217 553 180 556 100 C552 52 592 -14 669 -11 L669 -11 Z M414 17 C378 17 360 48 360 101 C360 153 380 186 413 186 C448 186 467 152 467 100 C467 48 449 17 414 17 L414 17 Z M670 17 C634 17 615 48 615 101 C615 153 634 186 669 186 C704 186 723 152 723 100 C723 49 703 17 670 17 L670 17 Z " />
<glyph glyph-name="guilsinglleft" unicode="&#x2039;" horiz-adv-x="289" d="M254 44 L132 202 L254 360 L205 360 L35 205 L35 200 L205 44 L254 44 Z " />
<glyph glyph-name="guilsinglright" unicode="&#x203a;" horiz-adv-x="289" d="M84 45 L254 200 L254 205 L84 361 L35 361 L157 203 L35 45 L84 45 Z " />
<glyph glyph-name="fraction" unicode="&#x2044;" horiz-adv-x="145" d="M-68 -35 L265 687 L213 687 L-120 -35 L-68 -35 Z " />
<glyph glyph-name="uni2070" unicode="&#x2070;" horiz-adv-x="382" d="M191 355 C296 355 353 459 353 573 C353 709 296 791 191 791 C86 791 29 690 29 574 C29 423 95 355 191 355 L191 355 Z M191 387 C128 387 98 463 98 574 C98 707 131 760 191 760 C254 760 284 684 284 573 C284 440 251 387 191 387 L191 387 Z " />
<glyph glyph-name="uni2074" unicode="&#x2074;" horiz-adv-x="391" d="M274 787 L236 787 L16 499 L16 479 L214 479 L214 403 L210 400 L147 400 L147 365 L337 365 L337 400 L278 400 L274 403 L274 479 L360 479 L372 518 L372 524 L274 524 L274 787 Z M214 710 L214 524 L74 524 L214 710 Z " />
<glyph glyph-name="uni2075" unicode="&#x2075;" horiz-adv-x="339" d="M172 622 C146 622 119 615 91 602 L102 728 L235 728 L279 666 L284 666 L284 782 L70 782 L55 573 L66 567 C92 577 118 582 144 582 C191 582 243 555 243 482 C243 421 210 386 162 386 C118 386 95 411 74 444 L52 477 L46 477 L46 378 C85 363 122 355 157 355 C245 355 309 412 309 496 C311 581 234 627 172 622 L172 622 Z " />
<glyph glyph-name="uni2076" unicode="&#x2076;" horiz-adv-x="349" d="M202 611 C168 611 136 602 106 584 C130 671 202 736 289 768 L280 792 C125 748 30 639 30 517 C30 416 87 355 179 355 C220 355 254 368 282 395 C309 422 323 455 323 495 C324 568 258 615 202 611 L202 611 Z M181 386 C125 386 97 443 97 515 C97 530 98 544 100 557 C126 566 151 571 174 571 C229 571 257 535 257 479 C257 424 224 386 181 386 L181 386 Z " />
<glyph glyph-name="uni2077" unicode="&#x2077;" horiz-adv-x="318" d="M29 666 L35 666 L78 728 L260 728 C217 645 152 531 67 384 L138 357 C176 445 233 584 310 774 L310 782 L29 782 L29 666 Z " />
<glyph glyph-name="uni2078" unicode="&#x2078;" horiz-adv-x="346" d="M215 596 C270 616 301 653 301 692 C303 759 223 795 175 791 C104 791 49 745 49 685 C49 644 75 608 126 577 L127 576 C62 561 24 503 28 468 C26 387 119 352 172 355 C229 350 323 398 319 472 C319 519 290 551 242 580 L215 596 Z M106 703 C106 735 135 760 172 760 C213 760 241 731 241 691 C241 660 226 632 195 609 L164 628 C119 655 106 676 106 703 L106 703 Z M178 386 C130 386 94 421 94 476 C94 513 115 545 146 565 L197 535 C235 513 254 488 254 459 C254 416 223 386 178 386 L178 386 Z " />
<glyph glyph-name="uni2079" unicode="&#x2079;" horiz-adv-x="352" d="M175 791 C133 791 98 778 70 751 C42 724 28 692 28 653 C23 604 70 532 146 535 C183 535 217 545 248 565 C233 482 180 422 64 379 L74 354 C219 383 329 508 323 629 C323 717 277 791 175 791 L175 791 Z M178 575 C123 575 96 610 96 666 C96 721 128 760 173 760 C225 760 253 708 253 621 L252 589 C229 580 204 575 178 575 L178 575 Z " />
<glyph glyph-name="uni207A" unicode="&#x207a;" horiz-adv-x="450" d="M251 597 L251 746 L199 746 L199 597 L50 597 L50 545 L199 545 L199 396 L251 396 L251 545 L400 545 L400 597 L251 597 Z " />
<glyph glyph-name="uni207B" unicode="&#x207b;" horiz-adv-x="450" d="M400 545 L400 597 L50 597 L50 545 L400 545 Z " />
<glyph glyph-name="uni207C" unicode="&#x207c;" horiz-adv-x="450" d="M400 611 L400 663 L50 663 L50 611 L400 611 Z M400 461 L400 513 L50 513 L50 461 L400 461 Z " />
<glyph glyph-name="uni207D" unicode="&#x207d;" horiz-adv-x="201" d="M196 293 C145 343 96 456 99 563 C99 660 129 760 196 829 L172 845 C112 801 31 675 35 561 C32 450 111 324 173 278 L196 293 Z " />
<glyph glyph-name="uni207E" unicode="&#x207e;" horiz-adv-x="201" d="M29 278 C89 322 170 448 166 562 C169 673 90 799 28 845 L5 830 C56 780 105 667 102 560 C102 463 72 363 5 294 L29 278 L29 278 Z " />
<glyph glyph-name="uni2080" unicode="&#x2080;" horiz-adv-x="382" d="M191 -130 C296 -130 353 -26 353 88 C353 224 296 306 191 306 C86 306 29 205 29 89 C29 -62 95 -130 191 -130 L191 -130 Z M191 -98 C128 -98 98 -22 98 89 C98 222 131 275 191 275 C254 275 284 199 284 88 C284 -45 251 -98 191 -98 L191 -98 Z " />
<glyph glyph-name="uni2081" unicode="&#x2081;" horiz-adv-x="264" d="M239 -120 L239 -85 L173 -85 L169 -82 L169 297 L33 297 L33 262 L103 262 L107 259 L107 -82 L103 -85 L38 -85 L38 -120 L239 -120 Z " />
<glyph glyph-name="uni2082" unicode="&#x2082;" horiz-adv-x="335" d="M273 -65 L270 -69 L91 -69 L176 8 C250 73 287 134 287 193 C291 238 247 309 155 306 C115 306 68 292 37 273 L37 175 L44 175 L76 222 C109 269 128 274 152 274 C193 274 219 238 219 190 C219 127 185 73 116 0 L24 -97 L24 -120 L309 -120 L309 -18 L273 -18 L273 -65 Z " />
<glyph glyph-name="uni2083" unicode="&#x2083;" horiz-adv-x="324" d="M195 105 C247 125 281 166 281 213 C281 268 235 306 159 306 C117 306 77 295 40 273 L40 177 L46 177 L80 226 C102 258 126 274 151 274 C190 274 214 246 214 203 C214 150 178 114 119 114 L95 114 L95 80 L134 80 C198 80 229 44 229 -8 C229 -63 197 -98 154 -98 C109 -98 85 -74 65 -45 L41 -8 L36 -8 L36 -106 C75 -122 113 -130 150 -130 C179 -130 206 -124 231 -111 C281 -85 297 -43 297 -4 C297 51 255 94 195 105 L195 105 Z " />
<glyph glyph-name="uni2084" unicode="&#x2084;" horiz-adv-x="391" d="M274 302 L236 302 L16 14 L16 -6 L214 -6 L214 -82 L210 -85 L147 -85 L147 -120 L337 -120 L337 -85 L278 -85 L274 -82 L274 -6 L360 -6 L372 33 L372 39 L274 39 L274 302 Z M214 225 L214 39 L74 39 L214 225 Z " />
<glyph glyph-name="uni2085" unicode="&#x2085;" horiz-adv-x="339" d="M172 137 C146 137 119 130 91 117 L102 243 L235 243 L279 181 L284 181 L284 297 L70 297 L55 88 L66 82 C92 92 118 97 144 97 C191 97 243 70 243 -3 C243 -64 210 -99 162 -99 C118 -99 95 -74 74 -41 L52 -8 L46 -8 L46 -107 C85 -122 122 -130 157 -130 C245 -130 309 -73 309 11 C311 96 234 142 172 137 L172 137 Z " />
<glyph glyph-name="uni2086" unicode="&#x2086;" horiz-adv-x="349" d="M202 126 C168 126 136 117 106 99 C130 186 202 251 289 283 L280 307 C125 263 30 154 30 32 C30 -69 87 -130 179 -130 C220 -130 254 -117 282 -90 C309 -63 323 -30 323 10 C324 83 258 130 202 126 L202 126 Z M181 -99 C125 -99 97 -42 97 30 C97 45 98 59 100 72 C126 81 151 86 174 86 C229 86 257 50 257 -6 C257 -61 224 -99 181 -99 L181 -99 Z " />
<glyph glyph-name="uni2087" unicode="&#x2087;" horiz-adv-x="318" d="M29 181 L35 181 L78 243 L260 243 C217 160 152 46 67 -101 L138 -128 C176 -40 233 99 310 289 L310 297 L29 297 L29 181 Z " />
<glyph glyph-name="uni2088" unicode="&#x2088;" horiz-adv-x="346" d="M215 111 C270 131 301 168 301 207 C303 274 223 310 175 306 C104 306 49 260 49 200 C49 159 75 123 126 92 L127 91 C62 76 24 18 28 -17 C26 -98 119 -133 172 -130 C229 -135 323 -87 319 -13 C319 34 290 66 242 95 L215 111 Z M106 218 C106 250 135 275 172 275 C213 275 241 246 241 206 C241 175 226 147 195 124 L164 143 C119 170 106 191 106 218 L106 218 Z M178 -99 C130 -99 94 -64 94 -9 C94 28 115 60 146 80 L197 50 C235 28 254 3 254 -26 C254 -69 223 -99 178 -99 L178 -99 Z " />
<glyph glyph-name="uni2089" unicode="&#x2089;" horiz-adv-x="352" d="M175 306 C133 306 98 293 70 266 C42 239 28 207 28 168 C23 119 70 47 146 50 C183 50 217 60 248 80 C233 -3 180 -63 64 -106 L74 -131 C219 -102 329 23 323 144 C323 232 277 306 175 306 L175 306 Z M178 90 C123 90 96 125 96 181 C96 236 128 275 173 275 C225 275 253 223 253 136 L252 104 C229 95 204 90 178 90 L178 90 Z " />
<glyph glyph-name="uni208A" unicode="&#x208a;" horiz-adv-x="450" d="M251 112 L251 261 L199 261 L199 112 L50 112 L50 60 L199 60 L199 -89 L251 -89 L251 60 L400 60 L400 112 L251 112 Z " />
<glyph glyph-name="uni208B" unicode="&#x208b;" horiz-adv-x="450" d="M400 60 L400 112 L50 112 L50 60 L400 60 Z " />
<glyph glyph-name="uni208C" unicode="&#x208c;" horiz-adv-x="450" d="M400 126 L400 178 L50 178 L50 126 L400 126 Z M400 -24 L400 28 L50 28 L50 -24 L400 -24 Z " />
<glyph glyph-name="uni208D" unicode="&#x208d;" horiz-adv-x="201" d="M196 -192 C145 -142 96 -29 99 78 C99 175 129 275 196 344 L172 360 C112 316 31 190 35 76 C32 -35 111 -161 173 -207 L196 -192 Z " />
<glyph glyph-name="uni208E" unicode="&#x208e;" horiz-adv-x="201" d="M29 -207 C89 -163 170 -37 166 77 C169 188 90 314 28 360 L5 345 C56 295 105 182 102 75 C102 -22 72 -122 5 -191 L29 -207 L29 -207 Z " />
<glyph glyph-name="Euro" unicode="&#x20ac;" horiz-adv-x="475" d="M411 98 C390 53 356 30 308 30 C235 27 190 110 181 173 L337 173 L342 212 L176 212 L175 244 L176 270 L349 270 L353 310 L180 310 C196 395 240 448 305 448 C349 448 383 426 406 381 L433 335 L440 335 L440 466 C401 482 360 490 317 490 C192 490 120 392 101 310 L42 310 L38 270 L95 270 L93 237 L94 212 L30 212 L26 173 L99 173 C115 64 212 -15 309 -10 C361 -10 413 6 449 26 L449 161 L442 161 L411 98 Z " />
<glyph glyph-name="uni2116" unicode="&#x2116;" horiz-adv-x="811" d="M392 432 L392 133 L173 480 L32 480 L32 471 L99 432 L99 43 L95 39 L38 39 L38 0 L209 0 L209 39 L151 39 L147 43 L147 385 L395 0 L440 0 L440 432 L511 471 L511 480 L325 480 L325 471 L392 432 Z M649 159 C733 157 779 234 774 276 C779 323 733 388 655 386 C579 386 529 334 529 267 C529 202 578 159 649 159 L649 159 Z M646 357 C687 359 715 296 712 257 C712 213 691 188 659 188 C613 188 590 250 590 287 C590 332 613 357 646 357 L646 357 Z M772 81 L772 119 L529 119 L529 81 L772 81 Z " />
<glyph glyph-name="trademark" unicode="&#x2122;" horiz-adv-x="674" d="M32 570 L63 624 L120 624 L120 432 L118 430 L84 430 L84 405 L206 405 L206 430 L172 430 L170 432 L170 624 L226 624 L257 570 L265 570 L265 650 L25 650 L25 570 L32 570 Z M607 432 L594 623 L629 645 L629 650 L542 650 L465 481 L462 481 L390 650 L298 650 L298 645 L334 622 L321 432 L319 430 L291 430 L291 405 L382 405 L382 430 L352 430 L350 432 L360 592 L441 405 L460 405 L545 592 L556 432 L554 430 L525 430 L525 405 L639 405 L639 430 L609 430 L607 432 Z " />
<glyph glyph-name="Omega" unicode="&#x2126;" horiz-adv-x="768" d="M650 45 L493 45 C608 127 681 258 681 374 C681 541 573 665 382 665 C221 665 77 528 77 360 C77 229 141 134 273 45 L118 45 L55 165 L45 165 L45 0 L333 0 L333 45 C235 119 165 221 165 350 C165 432 185 498 225 547 C265 596 317 620 382 620 C514 620 593 516 593 377 C593 237 538 124 435 45 L435 0 L723 0 L723 165 L713 165 L650 45 Z " />
<glyph glyph-name="onethird" unicode="&#x2153;" horiz-adv-x="801" d="M173 -35 L225 -35 L558 687 L506 687 L173 -35 Z M50 278 L50 243 L251 243 L251 278 L185 278 L181 281 L181 660 L45 660 L45 625 L115 625 L119 622 L119 281 L115 278 L50 278 Z M636 225 C688 245 722 286 722 333 C722 388 676 426 600 426 C558 426 518 415 481 393 L481 297 L487 297 L521 346 C543 378 567 394 592 394 C631 394 655 366 655 323 C655 270 619 234 560 234 L536 234 L536 200 L575 200 C639 200 670 164 670 112 C670 57 638 22 595 22 C550 22 526 46 506 75 L482 112 L477 112 L477 14 C516 -2 554 -10 591 -10 C620 -10 647 -4 672 10 C722 36 738 77 738 116 C738 171 696 214 636 225 L636 225 Z " />
<glyph glyph-name="twothirds" unicode="&#x2154;" horiz-adv-x="800" d="M214 -35 L266 -35 L599 687 L547 687 L214 -35 Z M276 345 L276 298 L273 294 L94 294 L179 371 C253 436 290 497 290 556 C294 601 250 672 158 669 C118 669 71 655 40 636 L40 538 L47 538 L79 585 C112 632 131 637 155 637 C196 637 222 601 222 553 C222 490 188 436 119 363 L27 266 L27 243 L312 243 L312 345 L276 345 Z M665 225 C717 245 751 286 751 333 C751 388 705 426 629 426 C587 426 547 415 510 393 L510 297 L516 297 L550 346 C572 378 596 394 621 394 C660 394 684 366 684 323 C684 270 648 234 589 234 L565 234 L565 200 L604 200 C668 200 699 164 699 112 C699 57 667 22 624 22 C579 22 555 46 535 75 L511 112 L506 112 L506 14 C545 -2 583 -10 620 -10 C649 -10 676 -4 701 10 C751 36 767 77 767 116 C767 171 725 214 665 225 L665 225 Z " />
<glyph glyph-name="oneeighth" unicode="&#x215b;" horiz-adv-x="801" d="M186 -35 L238 -35 L571 687 L519 687 L186 -35 Z M55 278 L55 243 L256 243 L256 278 L190 278 L186 281 L186 660 L50 660 L50 625 L120 625 L124 622 L124 281 L120 278 L55 278 Z M648 231 C703 251 734 288 734 327 C736 394 656 430 608 426 C537 426 482 380 482 320 C482 279 508 243 559 212 L560 211 C495 196 457 138 461 103 C459 22 552 -13 605 -10 C661 -15 755 33 752 107 C752 154 723 186 675 215 L648 231 Z M539 338 C539 370 568 395 605 395 C646 395 674 366 674 326 C674 295 659 267 628 244 L597 263 C552 290 539 311 539 338 L539 338 Z M611 21 C563 21 527 56 527 111 C527 148 548 180 579 200 L630 170 C668 148 687 123 687 94 C687 51 656 21 611 21 L611 21 Z " />
<glyph glyph-name="threeeighths" unicode="&#x215c;" horiz-adv-x="800" d="M188 -35 L240 -35 L573 687 L521 687 L188 -35 Z M299 359 C299 414 257 457 197 468 C249 488 283 529 283 576 C283 631 237 669 161 669 C119 669 79 658 42 636 L42 540 L48 540 L82 589 C104 621 128 637 153 637 C192 637 216 609 216 566 C216 513 180 477 121 477 L97 477 L97 443 L136 443 C200 443 231 407 231 355 C231 300 199 265 156 265 C111 265 87 289 67 318 L43 355 L38 355 L38 257 C77 241 115 233 152 233 C181 233 208 240 233 253 C283 279 299 320 299 359 L299 359 Z M654 231 C709 251 740 288 740 327 C742 394 662 430 614 426 C543 426 488 380 488 320 C488 279 514 243 565 212 L566 211 C501 196 463 138 467 103 C465 22 558 -13 611 -10 C667 -15 761 33 758 107 C758 154 729 186 681 215 L654 231 Z M545 338 C545 370 574 395 611 395 C652 395 680 366 680 326 C680 295 665 267 634 244 L603 263 C558 290 545 311 545 338 L545 338 Z M617 21 C569 21 533 56 533 111 C533 148 554 180 585 200 L636 170 C674 148 693 123 693 94 C693 51 662 21 617 21 L617 21 Z " />
<glyph glyph-name="fiveeighths" unicode="&#x215d;" horiz-adv-x="802" d="M195 -35 L247 -35 L580 687 L528 687 L195 -35 Z M304 374 C306 459 229 505 167 500 C141 500 114 493 86 480 L97 606 L230 606 L274 544 L279 544 L279 660 L65 660 L50 451 L61 445 C87 455 113 460 139 460 C186 460 238 433 238 360 C238 299 205 264 157 264 C113 264 90 289 69 322 L47 355 L41 355 L41 256 C80 241 117 233 152 233 C240 233 304 290 304 374 L304 374 Z M659 231 C714 251 745 288 745 327 C747 394 667 430 619 426 C548 426 493 380 493 320 C493 279 519 243 570 212 L571 211 C506 196 468 138 472 103 C470 22 563 -13 616 -10 C672 -15 766 33 763 107 C763 154 734 186 686 215 L659 231 Z M550 338 C550 370 579 395 616 395 C657 395 685 366 685 326 C685 295 670 267 639 244 L608 263 C563 290 550 311 550 338 L550 338 Z M622 21 C574 21 538 56 538 111 C538 148 559 180 590 200 L641 170 C679 148 698 123 698 94 C698 51 667 21 622 21 L622 21 Z " />
<glyph glyph-name="seveneighths" unicode="&#x215e;" horiz-adv-x="801" d="M152 -35 L204 -35 L537 687 L485 687 L152 -35 Z M170 235 C208 323 265 462 342 652 L342 660 L61 660 L61 544 L67 544 L110 606 L292 606 C249 523 184 409 99 262 L170 235 L170 235 Z M638 231 C693 251 724 288 724 327 C726 394 646 430 598 426 C527 426 472 380 472 320 C472 279 498 243 549 212 L550 211 C485 196 447 138 451 103 C449 22 542 -13 595 -10 C651 -15 745 33 742 107 C742 154 713 186 665 215 L638 231 Z M529 338 C529 370 558 395 595 395 C636 395 664 366 664 326 C664 295 649 267 618 244 L587 263 C542 290 529 311 529 338 L529 338 Z M601 21 C553 21 517 56 517 111 C517 148 538 180 569 200 L620 170 C658 148 677 123 677 94 C677 51 646 21 601 21 L601 21 Z " />
<glyph glyph-name="partialdiff" unicode="&#x2202;" horiz-adv-x="506" d="M364 616 C301 680 213 717 125 717 L113 684 C190 672 245 644 294 595 C345 543 369 456 373 361 C326 400 278 420 229 420 C170 420 123 399 88 358 C53 316 36 263 36 199 C37 49 147 -19 234 -15 C369 -15 456 125 456 330 C458 392 441 537 364 616 L364 616 Z M236 25 C154 21 110 132 114 194 C114 294 160 363 245 363 C285 363 338 346 374 325 C374 136 316 25 236 25 L236 25 Z " />
<glyph glyph-name="Delta" unicode="&#x2206;" horiz-adv-x="669" d="M313 650 L10 0 L659 0 L379 650 L313 650 Z M544 60 L97 60 L327 563 L544 60 Z " />
<glyph glyph-name="product" unicode="&#x220f;" horiz-adv-x="666" d="M271 -150 L271 -105 L196 -105 L191 -100 L191 594 L471 594 L471 -100 L466 -105 L396 -105 L396 -150 L631 -150 L631 -105 L556 -105 L551 -100 L551 599 L641 644 L641 649 L25 649 L25 644 L111 599 L111 -100 L106 -105 L35 -105 L35 -150 L271 -150 Z " />
<glyph glyph-name="summation" unicode="&#x2211;" horiz-adv-x="546" d="M526 -150 L537 48 L532 48 L449 -72 L89 -72 L325 270 L133 605 L438 605 L504 485 L509 485 L509 650 L32 650 L32 620 L253 250 L5 -120 L5 -150 L526 -150 Z " />
<glyph glyph-name="minus" unicode="&#x2212;" horiz-adv-x="560" d="M480 181 L480 233 L80 233 L80 181 L480 181 Z " />
<glyph glyph-name="uni2215" unicode="&#x2215;" horiz-adv-x="145" d="M-68 -35 L265 687 L213 687 L-120 -35 L-68 -35 Z " />
<glyph glyph-name="uni2219" unicode="&#x2219;" horiz-adv-x="269" d="M135 231 C193 229 234 293 229 325 C233 359 194 421 135 420 C76 421 36 359 40 325 C35 293 77 229 135 231 L135 231 Z " />
<glyph glyph-name="radical" unicode="&#x221a;" horiz-adv-x="609" d="M526 750 L298 85 L161 410 L40 410 L40 405 L96 360 L262 -10 L307 -10 L560 711 L649 711 L649 750 L526 750 Z " />
<glyph glyph-name="infinity" unicode="&#x221e;" horiz-adv-x="701" d="M506 480 C484 480 462 474 439 461 C416 448 385 419 348 374 C310 445 260 480 199 480 C89 483 45 371 50 319 C50 240 105 169 192 169 C238 172 280 178 356 278 C396 206 450 169 507 169 C548 169 583 184 610 214 C637 244 651 282 651 327 C653 426 563 486 506 480 L506 480 Z M511 232 C462 232 411 261 380 308 C407 342 425 363 432 371 C439 379 447 387 458 396 C478 412 504 421 525 421 C576 421 613 382 613 330 C616 265 555 229 511 232 L511 232 Z M180 228 C128 228 89 269 89 321 C89 377 130 417 191 417 C240 417 290 388 322 343 C319 339 311 329 298 312 C285 295 273 282 263 271 C243 249 216 228 180 228 L180 228 Z " />
<glyph glyph-name="integral" unicode="&#x222b;" horiz-adv-x="406" d="M7 -107 C56 -92 89 -75 106 -54 C140 -13 152 51 163 147 L208 530 C219 622 238 670 282 670 C303 670 324 656 345 628 L382 580 L387 580 L387 700 C359 711 332 717 307 717 C271 717 241 709 218 693 C171 660 143 591 126 435 L91 109 C86 63 81 31 78 13 C71 -24 55 -58 -6 -83 L7 -107 L7 -107 Z " />
<glyph glyph-name="approxequal" unicode="&#x2248;" horiz-adv-x="560" d="M356 238 C411 238 443 263 486 312 L449 341 C406 298 382 291 357 291 C342 291 318 300 285 317 C252 334 225 343 204 343 C149 343 117 318 74 269 L111 240 C154 283 178 290 203 290 C214 290 232 284 258 271 C310 246 331 238 356 238 L356 238 Z M356 74 C411 74 443 99 486 148 L449 177 C406 134 382 127 357 127 C342 127 318 136 285 153 C252 170 225 179 204 179 C149 179 117 154 74 105 L111 76 C154 119 178 126 203 126 C214 126 232 120 258 107 C310 82 331 74 356 74 L356 74 Z " />
<glyph glyph-name="notequal" unicode="&#x2260;" horiz-adv-x="560" d="M487 320 L391 320 L442 393 L394 421 L324 320 L73 320 L73 268 L288 268 L201 143 L73 143 L73 91 L165 91 L114 17 L163 -10 L233 91 L487 91 L487 143 L269 143 L355 268 L487 268 L487 320 Z " />
<glyph glyph-name="lessequal" unicode="&#x2264;" horiz-adv-x="560" d="M80 279 L80 225 L480 84 L480 140 L160 252 L480 364 L480 420 L80 279 Z M480 0 L480 52 L80 52 L80 0 L480 0 Z " />
<glyph glyph-name="greaterequal" unicode="&#x2265;" horiz-adv-x="560" d="M75 364 L395 252 L75 140 L75 84 L475 225 L475 279 L75 420 L75 364 Z M475 0 L475 52 L75 52 L75 0 L475 0 Z " />
<glyph glyph-name="lozenge" unicode="&#x25ca;" horiz-adv-x="560" d="M253 650 L62 320 L253 -10 L307 -10 L498 320 L307 650 L253 650 Z M125 320 L280 589 L435 320 L280 51 L125 320 Z " />
<glyph glyph-name="circle" unicode="&#x25cb;" horiz-adv-x="610" d="M305 119 C416 119 510 213 510 324 C510 435 416 529 305 529 C194 529 100 435 100 324 C100 213 194 119 305 119 L305 119 Z " />
<glyph glyph-name="uniF6BE" unicode="&#xf6be;" horiz-adv-x="249" d="M13 -227 C65 -212 101 -194 120 -173 C158 -131 169 -65 169 27 L169 417 L163 420 L32 359 L32 354 L99 322 L99 -11 C99 -75 92 -119 77 -144 C62 -168 37 -188 0 -203 L13 -227 L13 -227 Z " />
<glyph glyph-name="uniF6E1" unicode="&#xf6e1;" horiz-adv-x="191" d="M97 -18 C65 -18 40 -45 40 -77 C40 -109 65 -135 97 -135 C97 -180 73 -216 26 -241 L39 -265 C102 -243 160 -168 159 -94 C159 -51 134 -18 97 -18 L97 -18 Z " />
<glyph glyph-name="uniF6E2" unicode="&#xf6e2;" horiz-adv-x="191" d="M97 467 C65 467 40 440 40 408 C40 376 65 350 97 350 C97 305 73 269 26 244 L39 220 C102 242 160 317 159 391 C159 434 134 467 97 467 L97 467 Z " />
<glyph glyph-name="uniF6E5" unicode="&#xf6e5;" horiz-adv-x="360" d="M310 56 L310 108 L50 108 L50 56 L310 56 Z " />
<glyph glyph-name="uniF6E6" unicode="&#xf6e6;" horiz-adv-x="360" d="M310 541 L310 593 L50 593 L50 541 L310 541 Z " />
<glyph glyph-name="uniF6E7" unicode="&#xf6e7;" horiz-adv-x="197" d="M98 -135 C130 -135 157 -109 157 -77 C157 -45 130 -18 98 -18 C66 -18 40 -45 40 -77 C40 -109 66 -135 98 -135 L98 -135 Z " />
<glyph glyph-name="uniF6E8" unicode="&#xf6e8;" horiz-adv-x="197" d="M98 350 C130 350 157 376 157 408 C157 440 130 467 98 467 C66 467 40 440 40 408 C40 376 66 350 98 350 L98 350 Z " />
<glyph glyph-name="f_f" unicode="&#xfb00;" horiz-adv-x="595" d="M557 717 C502 717 460 702 432 671 C384 695 338 707 295 707 C164 707 96 621 96 436 L96 409 L91 404 L31 404 L31 359 L91 359 L96 353 L96 50 L91 45 L31 45 L31 0 L231 0 L231 45 L171 45 L166 50 L166 353 L171 359 L371 359 L376 353 L376 50 L371 45 L311 45 L311 0 L526 0 L526 45 L451 45 L446 50 L446 353 L451 359 L596 359 L596 404 L451 404 L446 409 L446 530 C446 625 473 672 526 672 C548 672 569 665 590 650 L645 580 L650 580 L650 700 C622 711 591 717 557 717 L557 717 Z M371 404 L171 404 L166 409 L166 479 C166 604 203 664 283 664 C324 664 359 640 390 591 L391 589 C381 549 376 498 376 436 L376 409 L371 404 Z " />
<glyph glyph-name="fi" unicode="&#xfb01;" horiz-adv-x="545" d="M451 50 L451 404 L171 404 L166 409 L166 530 C166 623 199 672 258 672 C290 672 320 655 347 620 L402 550 L407 550 L407 700 C380 711 325 717 292 717 C145 717 96 619 96 436 L96 409 L91 404 L31 404 L31 359 L91 359 L96 353 L96 50 L91 45 L31 45 L31 0 L231 0 L231 45 L171 45 L166 50 L166 353 L171 359 L381 359 L381 50 L376 45 L316 45 L316 0 L516 0 L516 45 L456 45 L451 50 Z " />
<glyph glyph-name="fl" unicode="&#xfb02;" horiz-adv-x="550" d="M456 50 L456 717 L450 720 L384 688 C349 707 313 717 277 717 C153 717 96 629 96 436 L96 409 L91 404 L31 404 L31 359 L91 359 L96 353 L96 50 L91 45 L31 45 L31 0 L231 0 L231 45 L171 45 L166 50 L166 353 L171 359 L306 359 L306 404 L171 404 L166 409 L166 530 C166 621 193 672 258 672 C295 672 331 656 365 623 L386 603 L386 50 L381 45 L321 45 L321 0 L521 0 L521 45 L461 45 L456 50 Z " />
<glyph glyph-name="f_f_i" unicode="&#xfb03;" horiz-adv-x="815" d="M721 50 L721 404 L451 404 L446 409 L446 530 C446 623 477 672 533 672 C557 672 582 663 617 620 L672 550 L677 550 L677 700 C653 709 600 717 567 717 C510 717 467 701 438 670 C399 690 346 707 291 707 C161 707 96 617 96 436 L96 409 L91 404 L31 404 L31 359 L91 359 L96 353 L96 50 L91 45 L31 45 L31 0 L231 0 L231 45 L171 45 L166 50 L166 353 L171 359 L371 359 L376 353 L376 50 L371 45 L311 45 L311 0 L511 0 L511 45 L451 45 L446 50 L446 353 L451 359 L651 359 L651 50 L646 45 L586 45 L586 0 L786 0 L786 45 L726 45 L721 50 Z M371 404 L171 404 L166 409 L166 479 C166 604 202 664 281 664 C326 664 364 640 395 592 C382 552 376 500 376 436 L376 409 L371 404 Z " />
<glyph glyph-name="f_f_l" unicode="&#xfb04;" horiz-adv-x="830" d="M736 50 L736 717 L730 720 L664 688 C629 707 593 717 557 717 C504 717 463 701 435 669 C386 694 337 707 290 707 C165 707 96 620 96 436 L96 409 L91 404 L31 404 L31 359 L91 359 L96 353 L96 50 L91 45 L31 45 L31 0 L231 0 L231 45 L171 45 L166 50 L166 353 L171 359 L371 359 L376 353 L376 50 L371 45 L311 45 L311 0 L511 0 L511 45 L451 45 L446 50 L446 353 L451 359 L586 359 L586 404 L451 404 L446 409 L446 530 C446 626 475 672 538 672 C575 672 611 656 645 623 L666 603 L666 50 L661 45 L601 45 L601 0 L801 0 L801 45 L741 45 L736 50 Z M371 404 L171 404 L166 409 L166 479 C166 602 203 664 278 664 C321 664 358 640 390 591 L393 587 C382 546 376 495 376 436 L376 409 L371 404 Z " />
</font>
</svg>
