<?xml version="1.0" encoding="UTF-8"?>
<svg xmlns="http://www.w3.org/2000/svg" xmlns:xlink="http://www.w3.org/1999/xlink" version="1.2" >
<font id="Internacional Regular">
<font-face  font-family="Internacional" units-per-em="1000" ascent="1060" descent="-300" font-style="normal" font-weight="400" font-stretch="normal" cap-height="724" x-height="578" underline-position="-75" underline-thickness="50" />
<missing-glyph  horiz-adv-x="491" d="M402 800 L91 800 L91 -181 L402 -181 L402 800 Z M327 734 L327 702 L262 702 L262 666 L327 666 L327 633 L164 633 L164 666 L229 666 L229 702 L165 702 L165 734 L327 734 Z M262 608 L262 539 L327 539 L327 506 L164 506 L164 608 L262 608 Z M229 574 L196 574 L196 539 L229 539 L229 574 Z M327 479 L327 447 L262 447 L262 378 L164 378 L164 411 L229 411 L229 447 L164 447 L164 479 L327 479 Z M327 420 L327 322 L164 322 L164 356 L294 356 L294 420 L327 420 Z M327 301 L327 190 L164 190 L164 301 L196 301 L196 222 L294 222 L294 268 L262 268 L262 246 L229 246 L229 301 L327 301 Z M327 131 L327 20 L164 20 L164 131 L327 131 Z M294 99 L196 99 L196 52 L294 52 L294 99 Z M327 -2 L327 -35 L295 -35 L227 -81 L327 -81 L327 -113 L164 -113 L164 -81 L232 -35 L164 -35 L164 -2 L327 -2 Z " />
<glyph glyph-name="NULL" d="" />
<glyph glyph-name="CR" unicode="&#xd;" horiz-adv-x="250" d="" />
<glyph glyph-name="space" unicode="&#x20;" horiz-adv-x="262" d="" />
<glyph glyph-name="exclam" unicode="&#x21;" horiz-adv-x="280" d="M97 208 L183 208 L194 764 L87 764 L97 208 Z M140 -16 C181 -16 210 9 210 51 C210 93 181 118 140 118 C99 118 70 93 70 51 C70 9 99 -16 140 -16 L140 -16 Z " />
<glyph glyph-name="quotedbl" unicode="&#x22;" horiz-adv-x="403" d="M70 545 L156 545 L167 800 L60 800 L70 545 Z M246 545 L332 545 L343 800 L236 800 L246 545 Z " />
<glyph glyph-name="numbersign" unicode="&#x23;" horiz-adv-x="776" d="M741 454 L741 548 L622 548 L650 724 L543 724 L515 548 L318 548 L346 724 L240 724 L212 548 L85 548 L85 454 L197 454 L171 287 L35 287 L35 193 L156 193 L125 0 L231 0 L262 193 L459 193 L428 0 L534 0 L565 193 L691 193 L691 287 L580 287 L607 454 L741 454 Z M474 287 L277 287 L303 454 L500 454 L474 287 Z " />
<glyph glyph-name="dollar" unicode="&#x24;" horiz-adv-x="666" d="M628 205 C628 499 175 350 175 538 C175 605 230 641 320 641 C420 641 479 599 500 506 L609 534 C587 650 510 719 386 736 L386 850 L274 850 L274 737 C145 723 62 653 62 528 C62 238 515 392 515 191 C515 120 451 83 348 83 C240 83 170 123 141 223 L31 195 C65 68 157 2 282 -13 L282 -126 L394 -126 L394 -13 C531 1 628 73 628 205 L628 205 Z " />
<glyph glyph-name="percent" unicode="&#x25;" horiz-adv-x="833" d="M202 358 C312 358 369 437 369 545 C369 655 310 734 202 734 C93 734 35 655 35 545 C35 437 92 358 202 358 L202 358 Z M116 0 L215 0 L711 724 L612 724 L116 0 Z M202 441 C144 441 121 486 121 545 C121 606 145 651 202 651 C258 651 283 607 283 545 C283 486 259 441 202 441 L202 441 Z M631 0 C741 0 798 79 798 187 C798 297 739 376 631 376 C522 376 464 298 464 187 C464 79 521 0 631 0 L631 0 Z M631 83 C573 83 550 128 550 187 C550 248 574 293 631 293 C687 293 712 249 712 187 C712 128 688 83 631 83 L631 83 Z " />
<glyph glyph-name="ampersand" unicode="&#x26;" horiz-adv-x="780" d="M751 -2 L632 117 C686 173 721 242 733 312 L628 339 C621 291 596 237 557 191 L371 376 C470 436 517 495 517 574 C517 669 445 740 329 740 C216 740 134 673 134 563 C134 499 161 447 208 391 C105 324 60 263 60 179 C60 52 159 -16 316 -16 C405 -16 483 8 547 48 L601 0 L751 -2 Z M327 636 C374 636 407 610 407 566 C407 522 379 491 302 446 C270 483 247 521 247 563 C247 610 280 636 327 636 L327 636 Z M173 185 C173 235 202 274 274 320 L294 300 L474 122 C431 97 381 81 324 81 C226 81 173 122 173 185 L173 185 Z " />
<glyph glyph-name="quotesingle" unicode="&#x27;" horiz-adv-x="227" d="M70 545 L156 545 L167 800 L60 800 L70 545 Z " />
<glyph glyph-name="parenleft" unicode="&#x28;" horiz-adv-x="317" d="M179 -134 L281 -108 C195 47 167 197 168 341 C169 486 201 632 281 775 L179 800 C96 648 54 522 52 342 C50 157 92 25 179 -134 L179 -134 Z " />
<glyph glyph-name="parenright" unicode="&#x29;" horiz-adv-x="317" d="M138 -134 C225 25 267 157 265 342 C263 522 221 648 138 800 L36 775 C116 632 148 486 149 341 C150 197 122 47 36 -108 L138 -134 Z " />
<glyph glyph-name="asterisk" unicode="&#x2a;" horiz-adv-x="422" d="M346 613 C324 625 299 634 265 641 C299 648 324 657 346 669 C369 682 378 701 363 727 C348 753 325 754 304 742 C281 729 259 708 234 679 C247 717 254 746 254 772 C254 797 241 816 211 816 C181 816 169 798 169 772 C169 745 175 717 188 679 C163 708 141 729 118 742 C97 754 74 753 59 727 C44 701 53 682 76 669 C98 657 123 648 157 641 C123 634 98 625 76 613 C53 600 44 581 59 555 C74 529 97 528 118 540 C141 553 163 574 188 603 C175 565 169 537 169 510 C169 484 181 466 211 466 C241 466 254 485 254 510 C254 536 247 565 234 603 C259 574 281 553 304 540 C325 528 348 529 363 555 C378 581 369 600 346 613 L346 613 Z " />
<glyph glyph-name="plus" unicode="&#x2b;" horiz-adv-x="527" d="M488 401 L314 401 L314 586 L213 586 L213 401 L39 401 L39 301 L214 301 L214 117 L314 117 L314 301 L488 301 L488 401 Z " />
<glyph glyph-name="comma" unicode="&#x2c;" horiz-adv-x="250" d="M124 118 C85 118 54 93 54 51 C54 14 79 -10 112 -15 C101 -57 79 -85 50 -107 L81 -147 C145 -110 194 -38 194 44 C194 93 165 118 124 118 L124 118 Z " />
<glyph glyph-name="hyphen" unicode="&#x2d;" horiz-adv-x="581" d="M71 253 L510 253 L510 354 L71 354 L71 253 Z " />
<glyph glyph-name="period" unicode="&#x2e;" horiz-adv-x="248" d="M124 -16 C165 -16 194 9 194 51 C194 93 165 118 124 118 C83 118 54 93 54 51 C54 9 83 -16 124 -16 L124 -16 Z " />
<glyph glyph-name="slash" unicode="&#x2f;" horiz-adv-x="452" d="M141 -10 L423 734 L312 734 L30 -10 L141 -10 Z " />
<glyph glyph-name="zero" unicode="0" horiz-adv-x="780" d="M390 -16 C611 -16 726 143 726 361 C726 581 608 740 390 740 C172 740 54 581 54 361 C54 143 169 -16 390 -16 L390 -16 Z M390 88 C236 88 167 208 167 361 C167 517 239 636 390 636 C540 636 613 518 613 361 C613 207 543 88 390 88 L390 88 Z " />
<glyph glyph-name="one" unicode="1" horiz-adv-x="422" d="M324 724 L18 724 L18 624 L212 624 L212 0 L324 0 L324 724 Z " />
<glyph glyph-name="two" unicode="2" horiz-adv-x="675" d="M386 97 C347 97 303 95 260 91 C463 204 594 327 594 504 C594 649 493 740 332 740 C180 740 76 659 48 523 L155 492 C174 588 235 639 331 639 C435 639 484 584 484 497 C484 330 275 192 47 76 L47 0 L633 0 L633 97 L386 97 Z " />
<glyph glyph-name="three" unicode="3" horiz-adv-x="668" d="M382 450 L598 651 L598 724 L70 724 L70 624 L434 624 L216 419 L252 361 C271 365 297 368 324 368 C435 368 503 316 503 227 C503 134 431 85 328 85 C227 85 161 136 142 215 L35 187 C63 64 164 -16 327 -16 C491 -16 612 71 612 223 C612 354 523 436 382 450 L382 450 Z " />
<glyph glyph-name="four" unicode="4" horiz-adv-x="720" d="M688 258 L588 258 L588 568 L476 568 L476 258 L162 258 L413 724 L294 724 L27 232 L27 159 L476 159 L476 0 L588 0 L588 159 L688 159 L688 258 Z " />
<glyph glyph-name="five" unicode="5" horiz-adv-x="658" d="M335 474 C284 474 234 466 190 452 L204 624 L571 624 L571 724 L107 724 L80 383 L159 340 C201 361 257 376 318 376 C428 376 504 328 504 229 C504 132 432 85 332 85 C231 85 166 133 142 215 L36 187 C64 65 168 -16 326 -16 C495 -16 613 76 613 231 C613 375 511 474 335 474 L335 474 Z " />
<glyph glyph-name="six" unicode="6" horiz-adv-x="721" d="M407 455 C299 455 213 416 166 346 C158 527 243 641 376 641 C473 641 529 592 555 520 L661 550 C624 674 522 740 378 740 C164 740 55 575 55 347 C55 131 153 -16 374 -16 C546 -16 669 74 669 228 C669 367 569 455 407 455 L407 455 Z M374 83 C277 83 201 121 188 207 C182 306 275 364 387 364 C493 364 560 312 560 225 C560 134 486 83 374 83 L374 83 Z " />
<glyph glyph-name="seven" unicode="7" horiz-adv-x="615" d="M594 724 L22 724 L22 624 L461 624 L129 0 L250 0 L594 653 L594 724 Z " />
<glyph glyph-name="eight" unicode="8" horiz-adv-x="704" d="M526 380 C579 413 618 464 618 535 C618 664 509 741 351 741 C193 741 86 664 86 536 C86 464 125 413 179 380 C106 346 51 288 51 201 C51 57 183 -16 351 -16 C518 -16 653 57 653 202 C653 288 598 346 526 380 L526 380 Z M188 533 C188 608 248 649 352 649 C456 649 516 608 516 533 C516 465 467 417 352 417 C237 417 188 465 188 533 L188 533 Z M352 82 C245 82 164 124 164 208 C164 287 235 334 352 334 C469 334 540 287 540 208 C540 124 459 82 352 82 L352 82 Z " />
<glyph glyph-name="nine" unicode="9" horiz-adv-x="720" d="M347 740 C177 740 54 650 54 496 C54 357 154 264 324 264 C423 264 510 307 557 382 C565 187 488 83 347 83 C237 83 185 128 159 203 L58 174 C95 50 193 -16 345 -16 C563 -16 665 139 665 377 C665 593 567 740 347 740 L347 740 Z M334 360 C230 360 163 412 163 499 C163 590 237 641 347 641 C443 641 519 603 532 517 C538 418 445 360 334 360 L334 360 Z " />
<glyph glyph-name="colon" unicode="&#x3a;" horiz-adv-x="304" d="M162 419 C203 419 232 444 232 486 C232 528 203 553 162 553 C121 553 92 528 92 486 C92 444 121 419 162 419 L162 419 Z M162 -16 C203 -16 232 9 232 51 C232 93 203 118 162 118 C121 118 92 93 92 51 C92 9 121 -16 162 -16 L162 -16 Z " />
<glyph glyph-name="semicolon" unicode="&#x3b;" horiz-adv-x="289" d="M145 400 C186 400 215 425 215 467 C215 509 186 534 145 534 C104 534 75 509 75 467 C75 425 104 400 145 400 L145 400 Z M145 118 C106 118 75 93 75 51 C75 14 100 -10 133 -15 C122 -57 100 -85 71 -107 L102 -147 C166 -110 215 -38 215 44 C215 93 186 118 145 118 L145 118 Z " />
<glyph glyph-name="less" unicode="&#x3c;" horiz-adv-x="506" d="M443 626 L33 411 L33 301 L443 86 L443 193 L128 356 L443 519 L443 626 Z " />
<glyph glyph-name="equal" unicode="&#x3d;" horiz-adv-x="597" d="M74 422 L523 422 L523 522 L74 522 L74 422 Z M74 182 L523 182 L523 282 L74 282 L74 182 Z " />
<glyph glyph-name="greater" unicode="&#x3e;" horiz-adv-x="506" d="M63 626 L63 519 L378 356 L63 193 L63 86 L473 301 L473 411 L63 626 Z " />
<glyph glyph-name="question" unicode="&#x3f;" horiz-adv-x="605" d="M560 548 C560 687 457 765 307 765 C148 765 55 676 29 548 L136 517 C155 610 211 661 310 661 C399 661 446 619 446 549 C446 394 237 401 237 236 L237 208 L349 208 L349 236 C349 330 560 344 560 548 L560 548 Z M293 -16 C334 -16 363 9 363 51 C363 94 334 118 293 118 C252 118 223 93 223 51 C223 9 252 -16 293 -16 L293 -16 Z " />
<glyph glyph-name="at" unicode="&#x40;" horiz-adv-x="891" d="M447 651 C204 651 50 495 50 273 C50 51 199 -104 423 -105 C492 -105 566 -93 620 -68 L588 14 C541 -7 477 -16 423 -16 C256 -15 150 105 150 273 C150 441 261 562 447 562 C631 562 734 451 734 283 C734 199 713 162 673 162 C640 162 620 180 620 229 L620 456 L564 456 L536 421 C504 456 459 467 414 467 C317 467 239 388 239 270 C239 152 315 73 413 73 C470 73 516 94 545 135 C569 94 610 73 667 73 C756 73 835 142 835 283 C835 505 698 651 447 651 L447 651 Z M434 162 C376 162 339 209 339 270 C339 331 375 378 434 378 C489 378 524 345 524 270 C524 198 491 162 434 162 L434 162 Z " />
<glyph glyph-name="A" unicode="A" horiz-adv-x="776" d="M640 0 L763 0 L441 727 L336 727 L13 0 L134 0 L208 174 L566 174 L640 0 Z M248 269 L312 420 C347 504 374 574 387 609 C400 575 426 504 462 420 L526 269 L248 269 Z " />
<glyph glyph-name="B" unicode="B" horiz-adv-x="770" d="M589 378 C651 406 688 466 688 530 C688 647 621 724 429 724 L98 724 L98 0 L445 0 C642 0 715 76 715 208 C715 288 677 353 589 378 L589 378 Z M410 624 C540 624 576 585 576 521 C576 455 534 414 404 414 L209 414 L209 624 L410 624 Z M438 100 L209 100 L209 323 L432 323 C555 323 601 285 601 212 C601 139 561 100 438 100 L438 100 Z " />
<glyph glyph-name="C" unicode="C" horiz-adv-x="790" d="M417 -16 C593 -16 718 78 756 222 L649 251 C622 152 539 87 419 87 C262 87 164 201 164 362 C164 523 263 637 420 637 C539 637 622 572 649 473 L756 502 C718 645 595 740 420 740 C201 740 50 584 50 362 C50 140 198 -16 417 -16 L417 -16 Z " />
<glyph glyph-name="D" unicode="D" horiz-adv-x="805" d="M390 724 L98 724 L98 0 L390 0 C609 0 753 136 753 362 C753 588 609 724 390 724 L390 724 Z M390 102 L209 102 L209 622 L390 622 C546 622 639 527 639 362 C639 197 546 102 390 102 L390 102 Z " />
<glyph glyph-name="E" unicode="E" horiz-adv-x="699" d="M209 100 L209 317 L604 317 L604 412 L209 412 L209 624 L640 624 L640 724 L98 724 L98 0 L642 0 L642 100 L209 100 Z " />
<glyph glyph-name="F" unicode="F" horiz-adv-x="662" d="M628 624 L628 724 L98 724 L98 0 L209 0 L209 291 L585 291 L585 387 L209 387 L209 624 L628 624 Z " />
<glyph glyph-name="G" unicode="G" horiz-adv-x="819" d="M753 376 L407 376 L407 286 L645 286 L645 253 C645 146 549 87 412 87 C250 87 165 201 165 362 C165 523 259 637 417 637 C542 637 624 570 648 466 L753 494 C720 643 596 740 417 740 C199 740 51 584 51 362 C51 140 186 -16 396 -16 C505 -16 597 23 648 97 L674 0 L753 0 L753 376 Z " />
<glyph glyph-name="H" unicode="H" horiz-adv-x="839" d="M629 724 L629 422 L209 422 L209 724 L98 724 L98 0 L209 0 L209 322 L629 322 L629 0 L741 0 L741 724 L629 724 Z " />
<glyph glyph-name="I" unicode="I" horiz-adv-x="307" d="M98 0 L209 0 L209 724 L98 724 L98 0 Z " />
<glyph glyph-name="J" unicode="J" horiz-adv-x="610" d="M266 -13 C432 -13 520 78 520 256 L520 724 L409 724 L409 260 C409 144 362 89 265 89 C182 89 138 136 120 219 L15 194 C38 62 128 -13 266 -13 L266 -13 Z " />
<glyph glyph-name="K" unicode="K" horiz-adv-x="753" d="M615 0 L754 0 L433 406 L739 724 L599 724 L308 429 C278 396 241 356 209 320 L209 724 L98 724 L98 0 L209 0 L209 178 L357 330 L615 0 Z " />
<glyph glyph-name="L" unicode="L" horiz-adv-x="640" d="M209 100 L209 724 L98 724 L98 0 L622 0 L622 100 L209 100 Z " />
<glyph glyph-name="M" unicode="M" horiz-adv-x="981" d="M785 724 L600 469 C558 411 516 353 491 316 C465 353 423 411 381 469 L195 724 L98 724 L98 0 L209 0 L208 360 C207 430 205 502 203 544 C226 510 266 452 310 392 L450 201 L525 201 L666 392 C711 454 754 515 777 549 C776 507 773 432 773 360 L772 0 L883 0 L883 724 L785 724 Z " />
<glyph glyph-name="N" unicode="N" horiz-adv-x="844" d="M636 724 L637 321 C637 251 640 191 642 165 C626 186 592 233 549 286 L197 724 L98 724 L98 0 L208 0 L208 413 C208 476 204 534 202 562 C216 541 245 500 279 457 L647 0 L746 0 L746 724 L636 724 Z " />
<glyph glyph-name="O" unicode="O" horiz-adv-x="855" d="M427 -16 C650 -16 805 140 805 362 C805 584 650 740 427 740 C204 740 50 584 50 362 C50 140 204 -16 427 -16 L427 -16 Z M427 87 C269 87 163 202 163 362 C163 522 269 637 427 637 C585 637 691 522 691 362 C691 202 585 87 427 87 L427 87 Z " />
<glyph glyph-name="P" unicode="P" horiz-adv-x="762" d="M416 724 L98 724 L98 0 L209 0 L209 221 L416 221 C624 221 726 306 726 472 C726 639 624 724 416 724 L416 724 Z M409 323 L209 323 L209 622 L409 622 C549 622 612 578 612 472 C612 367 549 323 409 323 L409 323 Z " />
<glyph glyph-name="Q" unicode="Q" horiz-adv-x="855" d="M805 362 C805 584 650 740 427 740 C204 740 50 584 50 362 C50 147 195 -6 407 -16 L516 -173 L643 -173 L522 -6 C693 32 805 173 805 362 L805 362 Z M427 87 C269 87 163 202 163 362 C163 522 269 637 427 637 C585 637 691 522 691 362 C691 202 585 87 427 87 L427 87 Z " />
<glyph glyph-name="R" unicode="R" horiz-adv-x="780" d="M595 0 L731 0 L538 256 C662 283 723 360 723 484 C723 643 623 724 418 724 L98 724 L98 0 L209 0 L209 244 L416 244 L595 0 Z M209 622 L415 622 C544 622 610 582 610 484 C610 386 544 346 415 346 L209 346 L209 622 Z " />
<glyph glyph-name="S" unicode="S" horiz-adv-x="706" d="M365 -16 C544 -16 660 61 660 197 C660 505 181 336 181 534 C181 602 238 641 339 641 C449 641 514 597 535 504 L644 532 C618 667 512 740 344 740 C174 740 68 663 68 529 C68 219 547 403 547 193 C547 123 488 83 373 83 C242 83 170 129 143 223 L33 195 C72 48 197 -16 365 -16 L365 -16 Z " />
<glyph glyph-name="T" unicode="T" horiz-adv-x="691" d="M673 724 L18 724 L18 624 L290 624 L290 0 L401 0 L401 624 L673 624 L673 724 Z " />
<glyph glyph-name="U" unicode="U" horiz-adv-x="816" d="M408 -16 C619 -16 728 109 728 308 L728 724 L617 724 L617 309 C617 170 555 87 408 87 C260 87 199 170 199 309 L199 724 L88 724 L88 308 C88 109 197 -16 408 -16 L408 -16 Z " />
<glyph glyph-name="V" unicode="V" horiz-adv-x="759" d="M624 724 L467 344 C435 265 398 163 380 114 C363 163 326 265 294 344 L138 724 L14 724 L325 0 L434 0 L745 724 L624 724 Z " />
<glyph glyph-name="W" unicode="W" horiz-adv-x="1157" d="M1024 724 L904 373 C869 272 839 178 824 128 C809 178 782 273 750 373 L637 724 L519 724 L407 372 C376 274 349 179 334 127 C319 178 289 274 256 373 L137 724 L16 724 L277 0 L392 0 L508 345 C539 438 564 523 577 568 C591 524 617 438 648 345 L767 0 L880 0 L1142 724 L1024 724 Z " />
<glyph glyph-name="X" unicode="X" horiz-adv-x="740" d="M446 368 L725 724 L586 724 L461 560 C420 505 387 456 370 430 C355 452 322 502 279 560 L155 724 L15 724 L293 367 L6 0 L146 0 L275 170 C321 232 355 282 371 304 C387 279 421 229 464 170 L593 0 L734 0 L446 368 Z " />
<glyph glyph-name="Y" unicode="Y" horiz-adv-x="765" d="M747 724 L616 724 L485 522 C446 462 410 401 385 358 C360 400 323 461 284 522 L153 724 L18 724 L327 272 L327 0 L438 0 L438 272 L747 724 Z " />
<glyph glyph-name="Z" unicode="Z" horiz-adv-x="708" d="M347 106 C277 106 218 103 188 100 C208 120 248 162 290 212 L654 644 L654 724 L53 724 L53 624 L347 624 C413 624 475 627 507 629 C486 607 446 565 406 517 L41 85 L41 5 L667 5 L667 106 L347 106 Z " />
<glyph glyph-name="bracketleft" unicode="&#x5b;" horiz-adv-x="337" d="M201 -34 L201 700 L292 700 L292 800 L91 800 L91 -134 L292 -134 L292 -34 L201 -34 Z " />
<glyph glyph-name="backslash" unicode="&#x5c;" horiz-adv-x="452" d="M311 -10 L422 -10 L140 734 L29 734 L311 -10 Z " />
<glyph glyph-name="bracketright" unicode="&#x5d;" horiz-adv-x="337" d="M136 -34 L45 -34 L45 -134 L246 -134 L246 800 L45 800 L45 700 L136 700 L136 -34 Z " />
<glyph glyph-name="asciicircum" unicode="&#x5e;" horiz-adv-x="475" d="M434 309 L278 554 L197 554 L41 309 L96 268 L238 436 L379 268 L434 309 Z " />
<glyph glyph-name="underscore" unicode="&#x5f;" horiz-adv-x="585" d="M53 -135 L532 -135 L532 -40 L53 -40 L53 -135 Z " />
<glyph glyph-name="grave" unicode="&#x60;" horiz-adv-x="600" d="M173 854 L60 806 L233 648 L293 693 L173 854 Z " />
<glyph glyph-name="a" unicode="a" horiz-adv-x="657" d="M324 594 C162 594 91 512 64 408 L166 383 C185 457 231 499 318 499 C418 499 470 444 470 341 L470 307 C417 329 349 343 276 343 C114 343 42 264 42 162 C42 59 113 -16 250 -16 C340 -16 424 22 472 90 L496 0 L580 0 L580 346 C580 500 498 594 324 594 L324 594 Z M270 75 C207 75 152 100 152 168 C152 232 205 260 288 260 C355 260 414 251 470 230 C467 133 368 75 270 75 L270 75 Z " />
<glyph glyph-name="b" unicode="b" horiz-adv-x="720" d="M405 594 C315 594 240 563 194 493 L194 800 L84 800 L84 0 L169 0 L191 87 C236 18 309 -16 403 -16 C553 -16 673 107 673 289 C673 472 555 594 405 594 L405 594 Z M380 86 C275 86 194 145 194 289 C194 427 277 492 382 492 C493 492 561 405 561 289 C561 173 491 86 380 86 L380 86 Z " />
<glyph glyph-name="c" unicode="c" horiz-adv-x="657" d="M341 -16 C487 -16 590 61 622 193 L517 220 C497 134 435 84 344 84 C226 84 158 169 158 289 C158 409 227 494 344 494 C436 494 497 444 517 358 L622 385 C590 517 488 594 341 594 C163 594 46 467 46 289 C46 111 160 -16 341 -16 L341 -16 Z " />
<glyph glyph-name="d" unicode="d" horiz-adv-x="720" d="M526 800 L526 499 C476 572 397 594 317 594 C167 594 47 472 47 289 C47 106 164 -16 315 -16 C409 -16 483 20 528 91 L551 0 L636 0 L636 800 L526 800 Z M337 86 C227 86 159 173 159 289 C159 405 226 492 336 492 C441 492 526 430 526 289 C526 152 443 85 337 86 L337 86 Z " />
<glyph glyph-name="e" unicode="e" horiz-adv-x="666" d="M619 301 C617 470 517 594 340 594 C163 594 46 466 46 288 C46 109 156 -16 331 -16 C474 -16 579 59 611 175 L511 202 C489 129 424 82 332 82 C229 82 163 149 154 259 L619 259 L619 301 Z M335 502 C436 502 497 441 509 345 L155 345 C168 437 236 502 335 502 L335 502 Z " />
<glyph glyph-name="f" unicode="f" horiz-adv-x="436" d="M216 615 C216 686 255 717 309 717 C358 717 390 697 404 660 L496 693 C471 764 407 810 303 810 C177 810 108 728 108 606 L108 578 L43 578 L43 482 L108 482 L108 0 L218 0 L218 482 L423 482 L423 578 L216 578 L216 615 Z " />
<glyph glyph-name="g" unicode="g" horiz-adv-x="721" d="M552 581 L530 493 C480 569 397 594 318 594 C164 594 48 479 48 301 C48 123 162 10 317 10 C409 10 482 45 527 112 L527 54 C527 -51 454 -103 341 -103 C261 -103 204 -78 172 -21 L73 -60 C111 -149 194 -197 343 -197 C531 -197 637 -104 637 49 L637 581 L552 581 Z M342 109 C228 109 160 189 160 301 C160 412 227 492 341 492 C446 492 527 430 527 301 C527 173 447 109 342 109 L342 109 Z " />
<glyph glyph-name="h" unicode="h" horiz-adv-x="701" d="M396 594 C310 594 239 561 194 502 L194 800 L84 800 L84 0 L194 0 L194 328 C194 431 264 494 365 494 C451 494 514 449 514 328 L514 0 L624 0 L624 337 C624 497 549 594 396 594 L396 594 Z " />
<glyph glyph-name="i" unicode="i" horiz-adv-x="278" d="M139 661 C184 661 215 688 215 732 C215 775 184 802 139 802 C93 802 62 775 62 732 C62 688 93 661 139 661 L139 661 Z M84 0 L194 0 L194 578 L84 578 L84 0 Z " />
<glyph glyph-name="j" unicode="j" horiz-adv-x="306" d="M155 661 C200 661 231 688 231 732 C231 775 200 802 155 802 C109 802 78 775 78 732 C78 688 109 661 155 661 L155 661 Z M22 -197 C144 -197 210 -116 210 -6 L210 578 L100 578 L100 -3 C100 -68 64 -94 3 -94 C-16 -94 -34 -92 -54 -87 L-72 -184 C-42 -193 -13 -197 22 -197 L22 -197 Z " />
<glyph glyph-name="k" unicode="k" horiz-adv-x="620" d="M486 0 L621 0 L371 331 L609 578 L478 578 L321 418 C277 372 230 320 194 279 L194 800 L84 800 L84 0 L194 0 L194 154 L297 259 L486 0 Z " />
<glyph glyph-name="l" unicode="l" horiz-adv-x="278" d="M84 0 L194 0 L194 800 L84 800 L84 0 Z " />
<glyph glyph-name="m" unicode="m" horiz-adv-x="1061" d="M773 594 C678 594 605 554 566 478 C535 553 471 594 376 594 C293 594 228 560 190 497 L169 578 L84 578 L84 0 L194 0 L194 327 C194 431 254 494 346 494 C421 494 480 456 480 334 L480 0 L590 0 L590 327 C590 431 650 494 742 494 C817 494 874 456 874 334 L874 0 L984 0 L984 343 C984 502 915 594 773 594 L773 594 Z " />
<glyph glyph-name="n" unicode="n" horiz-adv-x="701" d="M396 594 C303 594 233 558 190 495 L169 578 L84 578 L84 0 L194 0 L194 328 C194 431 264 494 365 494 C451 494 514 449 514 327 L514 0 L624 0 L624 337 C624 497 549 594 396 594 L396 594 Z " />
<glyph glyph-name="o" unicode="o" horiz-adv-x="698" d="M348 -16 C525 -16 652 108 652 290 C652 471 526 594 349 594 C172 594 46 470 46 288 C46 107 171 -16 348 -16 L348 -16 Z M349 84 C232 84 158 168 158 289 C158 411 232 494 349 494 C466 494 540 411 540 289 C540 168 466 84 349 84 L349 84 Z " />
<glyph glyph-name="p" unicode="p" horiz-adv-x="721" d="M403 594 C309 594 236 559 191 489 L169 578 L84 578 L84 -181 L194 -181 L194 79 C239 13 312 -16 404 -16 C553 -16 674 106 674 289 C674 471 554 594 403 594 L403 594 Z M380 86 C275 86 194 153 194 289 C194 429 278 492 381 492 C492 492 562 405 562 289 C562 173 491 86 380 86 L380 86 Z " />
<glyph glyph-name="q" unicode="q" horiz-adv-x="720" d="M551 578 L529 491 C485 561 412 594 317 594 C167 594 47 472 47 289 C47 107 166 -16 315 -16 C408 -16 481 18 526 86 L526 -181 L636 -181 L636 578 L551 578 Z M341 86 C231 86 159 169 159 289 C159 410 230 492 340 492 C445 492 526 425 526 289 C526 156 446 86 341 86 L341 86 Z " />
<glyph glyph-name="r" unicode="r" horiz-adv-x="449" d="M380 594 C298 594 231 555 192 487 L169 578 L84 578 L84 0 L194 0 L194 316 C194 421 270 492 357 492 C381 492 406 490 429 484 L443 587 C423 592 401 594 380 594 L380 594 Z " />
<glyph glyph-name="s" unicode="s" horiz-adv-x="607" d="M306 -16 C471 -16 562 52 562 167 C562 421 168 279 168 429 C168 477 216 502 289 502 C378 502 436 468 452 396 L555 419 C535 523 448 594 296 594 C152 594 61 527 61 418 C61 171 455 317 455 159 C455 103 402 76 314 76 C215 76 156 108 135 179 L32 157 C60 43 152 -16 306 -16 L306 -16 Z " />
<glyph glyph-name="t" unicode="t" horiz-adv-x="507" d="M414 151 C398 108 364 82 317 82 C259 82 226 122 226 192 L226 482 L460 482 L460 578 L226 578 L226 700 L146 700 L122 578 L20 578 L20 482 L116 482 L116 192 C116 56 184 -16 311 -16 C411 -16 480 32 505 120 L414 151 Z " />
<glyph glyph-name="u" unicode="u" horiz-adv-x="691" d="M497 578 L497 256 C497 152 425 83 325 83 C247 83 187 121 187 240 L187 578 L77 578 L77 235 C77 76 147 -16 294 -16 C387 -16 459 20 500 87 L522 0 L607 0 L607 578 L497 578 Z " />
<glyph glyph-name="v" unicode="v" horiz-adv-x="628" d="M495 578 L396 334 C354 232 328 149 316 107 C303 149 277 232 237 333 L139 578 L15 578 L263 0 L365 0 L613 578 L495 578 Z " />
<glyph glyph-name="w" unicode="w" horiz-adv-x="952" d="M819 578 L738 340 C710 259 687 182 674 136 C661 182 639 259 612 340 L532 578 L421 578 L341 340 C314 257 291 178 279 133 C266 178 242 257 214 340 L133 578 L16 578 L225 0 L328 0 L413 247 C440 328 462 402 474 443 C486 402 509 328 537 247 L623 0 L727 0 L936 578 L819 578 Z " />
<glyph glyph-name="x" unicode="x" horiz-adv-x="607" d="M376 293 L592 578 L460 578 L385 472 C350 423 320 376 306 354 C291 378 261 427 229 472 L154 578 L15 578 L230 291 L9 0 L144 0 L228 119 C256 159 285 206 301 232 C314 211 340 170 379 116 L462 0 L598 0 L376 293 Z " />
<glyph glyph-name="y" unicode="y" horiz-adv-x="633" d="M501 578 L403 335 C366 243 337 162 320 115 C304 162 276 243 238 334 L137 578 L16 578 L267 -1 L186 -181 L294 -181 L370 0 L619 578 L501 578 Z " />
<glyph glyph-name="z" unicode="z" horiz-adv-x="598" d="M361 96 C292 96 227 94 184 92 C214 124 259 173 308 228 L546 497 L546 578 L53 578 L53 482 L216 482 C289 482 359 484 406 487 C373 452 326 401 279 349 L39 81 L39 0 L557 0 L557 96 L361 96 Z " />
<glyph glyph-name="braceleft" unicode="&#x7b;" horiz-adv-x="363" d="M228 489 L228 601 C228 662 264 704 319 704 L319 804 C195 804 118 723 118 601 L118 484 C118 413 80 381 35 381 L35 291 C80 291 118 259 118 188 L118 63 C118 -59 195 -140 319 -140 L319 -40 C264 -40 228 2 228 63 L228 183 C229 255 207 302 157 336 C207 370 228 417 228 489 L228 489 Z " />
<glyph glyph-name="bar" unicode="&#x7c;" horiz-adv-x="282" d="M91 -161 L191 -161 L191 800 L91 800 L91 -161 Z " />
<glyph glyph-name="braceright" unicode="&#x7d;" horiz-adv-x="363" d="M245 484 L245 601 C245 723 168 804 44 804 L44 704 C99 704 135 662 135 601 L135 489 C135 417 156 370 206 336 C156 302 134 255 135 183 L135 63 C135 2 99 -40 44 -40 L44 -140 C168 -140 245 -59 245 63 L245 188 C245 259 283 291 328 291 L328 381 C283 381 245 413 245 484 L245 484 Z " />
<glyph glyph-name="asciitilde" unicode="&#x7e;" horiz-adv-x="537" d="M343 368 C292 368 270 422 194 422 C137 422 90 391 65 319 L131 284 C145 318 165 337 195 337 C244 337 265 283 343 283 C406 283 451 319 474 386 L408 421 C394 387 374 368 343 368 L343 368 Z " />
<glyph glyph-name="exclamdown" unicode="&#xa1;" horiz-adv-x="271" d="M135 594 C94 594 65 569 65 527 C65 485 94 460 135 460 C176 460 205 485 205 527 C205 569 176 594 135 594 L135 594 Z M92 370 L82 -186 L189 -186 L178 370 L92 370 Z " />
<glyph glyph-name="cent" unicode="&#xa2;" horiz-adv-x="628" d="M333 84 C223 84 158 165 158 274 C158 384 224 465 333 465 C417 465 475 417 494 340 L594 366 C568 474 494 543 385 560 L385 680 L273 680 L273 561 C134 538 46 425 46 274 C46 123 132 11 273 -12 L273 -131 L385 -131 L385 -11 C493 6 568 75 594 183 L494 209 C475 132 416 84 333 84 L333 84 Z " />
<glyph glyph-name="sterling" unicode="&#xa3;" horiz-adv-x="691" d="M249 198 C249 230 243 260 236 293 L460 293 L460 389 L217 389 C212 421 209 456 209 498 C209 582 267 641 364 641 C444 641 513 601 535 504 L644 532 C619 664 515 740 369 740 C205 740 98 645 98 493 C98 455 101 421 106 389 L58 389 L58 293 L123 293 C131 254 138 220 138 189 C138 126 110 97 58 90 L58 0 L641 0 L641 100 L224 100 C240 125 249 157 249 198 L249 198 Z " />
<glyph glyph-name="currency" unicode="&#xa4;" horiz-adv-x="712" d="M619 350 C619 406 605 456 580 497 L656 572 L579 649 L504 574 C463 600 413 614 356 614 C300 614 249 600 208 573 L133 649 L56 572 L132 496 C107 455 93 405 93 348 C93 292 107 242 132 201 L56 126 L133 49 L208 124 C249 98 299 84 355 84 C412 84 462 99 504 125 L579 49 L656 126 L580 202 C605 243 619 293 619 350 L619 350 Z M198 349 C198 451 263 516 356 516 C449 516 514 451 514 349 C514 248 449 182 356 182 C263 182 198 248 198 349 L198 349 Z " />
<glyph glyph-name="yen" unicode="&#xa5;" horiz-adv-x="744" d="M718 724 L586 724 L467 522 C432 462 398 402 374 360 C350 402 315 462 279 522 L160 724 L26 724 L238 395 L143 395 L143 297 L301 297 L316 274 L316 212 L143 212 L143 114 L316 114 L316 0 L427 0 L427 114 L601 114 L601 212 L427 212 L427 273 L442 297 L601 297 L601 395 L506 395 L718 724 Z " />
<glyph glyph-name="brokenbar" unicode="&#xa6;" horiz-adv-x="282" d="M91 427 L191 427 L191 800 L91 800 L91 427 Z M91 -161 L191 -161 L191 212 L91 212 L91 -161 Z " />
<glyph glyph-name="section" unicode="&#xa7;" horiz-adv-x="630" d="M496 129 C546 158 573 204 573 273 C573 537 179 415 179 558 C179 608 227 632 301 632 C389 632 447 598 463 526 L566 549 C546 653 459 724 308 724 C163 724 72 659 72 554 C72 494 95 457 130 432 C87 404 62 358 62 291 C62 22 456 146 456 -5 C456 -61 401 -88 319 -88 C229 -88 172 -56 151 15 L48 -7 C78 -125 169 -180 312 -180 C472 -180 563 -112 563 -3 C563 64 536 104 496 129 L496 129 Z M169 295 C169 352 207 381 265 387 C365 369 466 361 466 270 C466 207 416 181 341 177 C252 194 169 210 169 295 L169 295 Z " />
<glyph glyph-name="dieresis" unicode="&#xa8;" horiz-adv-x="600" d="M130 688 C171 688 199 712 199 752 C199 791 171 815 130 815 C88 815 60 791 60 752 C60 712 88 688 130 688 L130 688 Z M337 688 C378 688 406 712 406 752 C406 791 378 815 337 815 C295 815 267 791 267 752 C267 712 295 688 337 688 L337 688 Z " />
<glyph glyph-name="copyright" unicode="&#xa9;" horiz-adv-x="855" d="M427 -16 C650 -16 805 140 805 362 C805 584 650 740 427 740 C204 740 50 584 50 362 C50 140 204 -16 427 -16 L427 -16 Z M427 58 C252 58 136 185 136 362 C136 539 252 666 427 666 C602 666 718 540 718 363 C718 185 602 58 427 58 L427 58 Z M430 151 C528 151 600 204 622 295 L540 314 C527 266 495 228 431 228 C359 228 314 277 314 362 C314 446 359 495 432 495 C493 495 526 461 540 409 L622 428 C600 519 529 572 431 572 C303 572 225 483 225 361 C225 239 303 151 430 151 L430 151 Z " />
<glyph glyph-name="ordfeminine" unicode="&#xaa;" horiz-adv-x="455" d="M226 774 C125 774 81 722 64 657 L142 642 C152 679 178 699 222 699 C271 699 302 675 302 616 L302 609 C273 616 240 621 204 621 C90 621 50 572 50 504 C50 439 91 392 177 392 C230 392 277 411 308 446 L324 402 L386 402 L386 619 C386 715 335 774 226 774 L226 774 Z M194 469 C150 469 132 485 132 507 C132 530 148 548 202 548 C239 548 269 545 297 539 C293 499 244 469 194 469 L194 469 Z " />
<glyph glyph-name="guillemotleft" unicode="&#xab;" horiz-adv-x="549" d="M171 81 L284 81 L154 291 L284 501 L171 501 L41 291 L171 81 Z M378 81 L491 81 L361 291 L491 501 L378 501 L248 291 L378 81 Z " />
<glyph glyph-name="logicalnot" unicode="&#xac;" horiz-adv-x="596" d="M516 401 L67 401 L67 301 L415 301 L416 145 L516 145 L516 401 Z " />
<glyph glyph-name="uni00AD" unicode="&#xad;" horiz-adv-x="581" d="M71 253 L510 253 L510 354 L71 354 L71 253 Z " />
<glyph glyph-name="registered" unicode="&#xae;" horiz-adv-x="623" d="M311 737 C162 737 57 631 57 482 C57 333 162 227 311 227 C461 227 566 333 566 482 C566 631 461 737 311 737 L311 737 Z M311 289 C200 289 121 369 121 482 C121 595 200 675 311 675 C422 675 502 595 502 483 C502 369 422 289 311 289 L311 289 Z M433 524 C433 582 398 611 328 611 L199 611 L199 358 L259 358 L259 441 L297 441 L358 358 L435 358 L369 445 C412 455 433 481 433 524 L433 524 Z M259 552 L334 552 C365 552 375 542 375 523 C375 506 365 493 334 493 L259 493 L259 552 Z " />
<glyph glyph-name="macron" unicode="&#xaf;" horiz-adv-x="600" d="M60 800 L60 720 L428 720 L428 800 L60 800 Z " />
<glyph glyph-name="degree" unicode="&#xb0;" horiz-adv-x="342" d="M171 559 C248 559 298 609 298 680 C298 750 248 800 171 800 C93 800 43 750 43 680 C43 609 93 559 171 559 L171 559 Z M171 627 C139 627 118 649 118 680 C118 710 139 732 171 732 C202 732 223 710 223 680 C223 649 202 627 171 627 L171 627 Z " />
<glyph glyph-name="plusminus" unicode="&#xb1;" horiz-adv-x="591" d="M346 498 L346 663 L245 663 L245 498 L71 498 L71 398 L246 398 L246 234 L346 234 L346 398 L520 398 L520 498 L346 498 Z M71 72 L520 72 L520 172 L71 172 L71 72 Z " />
<glyph glyph-name="uni00B2" unicode="&#xb2;" horiz-adv-x="446" d="M331 474 C312 474 273 472 232 470 C315 524 369 582 369 661 C369 747 310 794 223 794 C143 794 78 749 60 663 L136 641 C147 687 174 711 220 711 C259 711 283 690 283 652 C283 585 185 527 65 461 L65 392 L386 392 L386 474 L331 474 Z " />
<glyph glyph-name="uni00B3" unicode="&#xb3;" horiz-adv-x="415" d="M262 627 L346 703 L346 774 L69 774 L69 695 L233 695 L142 607 L166 558 C184 562 195 563 208 563 C247 563 278 546 278 507 C278 475 253 455 206 455 C162 455 133 473 121 521 L40 499 C59 415 115 372 205 372 C297 372 364 421 364 500 C364 565 327 611 262 627 L262 627 Z " />
<glyph glyph-name="acute" unicode="&#xb4;" horiz-adv-x="600" d="M118 648 L293 805 L176 854 L60 687 L118 648 Z " />
<glyph glyph-name="paragraph" unicode="&#xb6;" horiz-adv-x="809" d="M499 724 L341 724 C133 724 31 639 31 472 C31 306 133 221 341 221 L388 221 L388 -181 L499 -181 L499 724 Z M594 724 L594 -181 L705 -181 L705 724 L594 724 Z " />
<glyph glyph-name="periodcentered" unicode="&#xb7;" horiz-adv-x="200" d="M100 329 C141 329 170 354 170 396 C170 438 141 463 100 463 C59 463 30 438 30 396 C30 354 59 329 100 329 L100 329 Z " />
<glyph glyph-name="cedilla" unicode="&#xb8;" horiz-adv-x="600" d="M216 -40 L242 29 L171 29 L124 -81 L161 -109 C170 -102 183 -98 197 -98 C227 -98 247 -111 247 -136 C247 -159 229 -174 197 -174 C167 -174 147 -161 135 -125 L60 -146 C79 -211 123 -249 201 -249 C273 -249 327 -207 327 -139 C327 -82 291 -35 216 -40 L216 -40 Z " />
<glyph glyph-name="uni00B9" unicode="&#xb9;" horiz-adv-x="282" d="M208 774 L31 774 L31 692 L122 692 L122 392 L208 392 L208 774 Z " />
<glyph glyph-name="ordmasculine" unicode="&#xba;" horiz-adv-x="466" d="M232 392 C343 392 422 470 422 584 C422 697 344 774 233 774 C122 774 44 696 44 582 C44 469 122 392 232 392 L232 392 Z M233 472 C170 472 130 517 130 583 C130 649 170 694 233 694 C296 694 336 649 336 583 C336 517 296 472 233 472 L233 472 Z " />
<glyph glyph-name="guillemotright" unicode="&#xbb;" horiz-adv-x="549" d="M171 81 L301 291 L171 501 L58 501 L188 291 L58 81 L171 81 Z M378 81 L508 291 L378 501 L265 501 L395 291 L265 81 L378 81 Z " />
<glyph glyph-name="onequarter" unicode="&#xbc;" horiz-adv-x="777" d="M132 342 L218 342 L218 724 L41 724 L41 642 L132 642 L132 342 Z M547 724 L51 0 L150 0 L646 724 L547 724 Z M744 165 L692 165 L692 295 L606 295 L606 165 L490 165 L597 382 L504 382 L377 124 L377 83 L606 83 L606 0 L692 0 L692 83 L744 83 L744 165 Z " />
<glyph glyph-name="onehalf" unicode="&#xbd;" horiz-adv-x="776" d="M536 724 L40 0 L139 0 L635 724 L536 724 Z M133 342 L219 342 L219 724 L42 724 L42 642 L133 642 L133 342 Z M686 82 C667 82 628 80 587 78 C670 132 724 190 724 269 C724 355 665 402 578 402 C498 402 433 357 415 271 L491 249 C502 295 529 319 575 319 C614 319 638 298 638 260 C638 193 540 135 420 69 L420 0 L741 0 L741 82 L686 82 Z " />
<glyph glyph-name="threequarters" unicode="&#xbe;" horiz-adv-x="869" d="M357 450 C357 515 320 561 255 577 L339 653 L339 724 L62 724 L62 645 L226 645 L135 557 L159 508 C177 512 188 513 201 513 C240 513 271 496 271 457 C271 425 246 405 199 405 C155 405 126 423 114 471 L33 449 C52 365 108 322 198 322 C290 322 357 371 357 450 L357 450 Z M651 724 L155 0 L254 0 L750 724 L651 724 Z M836 165 L784 165 L784 295 L698 295 L698 165 L582 165 L689 382 L596 382 L469 124 L469 83 L698 83 L698 0 L784 0 L784 83 L836 83 L836 165 Z " />
<glyph glyph-name="questiondown" unicode="&#xbf;" horiz-adv-x="598" d="M307 594 C266 594 237 569 237 527 C237 484 266 460 307 460 C348 460 377 485 377 527 C377 569 348 594 307 594 L307 594 Z M293 -187 C452 -187 545 -98 571 30 L464 61 C445 -32 389 -83 290 -83 C201 -83 154 -41 154 29 C154 184 363 177 363 342 L363 370 L251 370 L251 342 C251 248 40 234 40 30 C40 -109 143 -187 293 -187 L293 -187 Z " />
<glyph glyph-name="Agrave" unicode="&#xc0;" horiz-adv-x="776" d="M453 812 L350 940 L205 895 L391 770 L453 812 Z M640 0 L763 0 L441 727 L336 727 L13 0 L134 0 L208 174 L566 174 L640 0 Z M248 269 L312 420 C347 504 374 574 387 609 C400 575 426 504 462 420 L526 269 L248 269 Z " />
<glyph glyph-name="Aacute" unicode="&#xc1;" horiz-adv-x="776" d="M559 895 L421 940 L307 813 L360 770 L559 895 Z M640 0 L763 0 L441 727 L336 727 L13 0 L134 0 L208 174 L566 174 L640 0 Z M248 269 L312 420 C347 504 374 574 387 609 C400 575 426 504 462 420 L526 269 L248 269 Z " />
<glyph glyph-name="Acircumflex" unicode="&#xc2;" horiz-adv-x="776" d="M387 850 L535 770 L576 815 L433 940 L341 940 L198 815 L239 770 L387 850 Z M640 0 L763 0 L441 727 L336 727 L13 0 L134 0 L208 174 L566 174 L640 0 Z M248 269 L312 420 C347 504 374 574 387 609 C400 575 426 504 462 420 L526 269 L248 269 Z " />
<glyph glyph-name="Atilde" unicode="&#xc3;" horiz-adv-x="776" d="M315 839 C364 839 385 785 463 785 C526 785 571 821 594 888 L528 923 C514 889 494 870 463 870 C412 870 390 924 314 924 C257 924 210 893 185 821 L251 786 C265 820 285 839 315 839 L315 839 Z M640 0 L763 0 L441 727 L336 727 L13 0 L134 0 L208 174 L566 174 L640 0 Z M248 269 L312 420 C347 504 374 574 387 609 C400 575 426 504 462 420 L526 269 L248 269 Z " />
<glyph glyph-name="Adieresis" unicode="&#xc4;" horiz-adv-x="776" d="M285 787 C328 787 357 812 357 854 C357 895 328 920 285 920 C241 920 212 895 212 854 C212 812 241 787 285 787 L285 787 Z M492 787 C535 787 564 812 564 854 C564 895 535 920 492 920 C448 920 419 895 419 854 C419 812 448 787 492 787 L492 787 Z M640 0 L763 0 L441 727 L336 727 L13 0 L134 0 L208 174 L566 174 L640 0 Z M248 269 L312 420 C347 504 374 574 387 609 C400 575 426 504 462 420 L526 269 L248 269 Z " />
<glyph glyph-name="Aring" unicode="&#xc5;" horiz-adv-x="776" d="M640 0 L763 0 L448 711 C491 730 516 770 516 820 C516 890 466 940 388 940 C309 940 259 890 259 820 C259 769 285 729 329 710 L13 0 L134 0 L208 174 L566 174 L640 0 Z M388 877 C422 877 444 854 444 820 C444 785 422 762 388 762 C353 762 331 785 331 820 C331 854 353 877 388 877 L388 877 Z M248 269 L312 420 C347 504 374 574 387 609 C400 575 426 504 462 420 L526 269 L248 269 Z " />
<glyph glyph-name="AE" unicode="&#xc6;" horiz-adv-x="1160" d="M680 100 L680 317 L1065 317 L1065 412 L680 412 L680 624 L1101 624 L1101 724 L365 724 L5 0 L126 0 L211 174 L569 174 L569 0 L1103 0 L1103 100 L680 100 Z M258 269 L431 624 L569 624 L569 269 L258 269 Z " />
<glyph glyph-name="Ccedilla" unicode="&#xc7;" horiz-adv-x="791" d="M420 87 C263 87 165 201 165 362 C165 523 264 637 421 637 C540 637 623 572 650 473 L757 502 C719 645 596 740 421 740 C202 740 51 584 51 362 C51 161 172 14 358 -12 L328 -81 L365 -109 C374 -102 387 -98 401 -98 C431 -98 451 -111 451 -136 C451 -159 433 -174 401 -174 C371 -174 351 -161 339 -125 L264 -146 C283 -211 327 -249 405 -249 C477 -249 531 -207 531 -139 C531 -82 495 -35 420 -40 L429 -16 C599 -12 720 81 757 222 L650 251 C623 152 540 87 420 87 L420 87 Z " />
<glyph glyph-name="Egrave" unicode="&#xc8;" horiz-adv-x="699" d="M446 812 L343 940 L198 895 L384 770 L446 812 Z M209 100 L209 317 L604 317 L604 412 L209 412 L209 624 L640 624 L640 724 L98 724 L98 0 L642 0 L642 100 L209 100 Z " />
<glyph glyph-name="Eacute" unicode="&#xc9;" horiz-adv-x="699" d="M552 895 L414 940 L300 813 L353 770 L552 895 Z M209 100 L209 317 L604 317 L604 412 L209 412 L209 624 L640 624 L640 724 L98 724 L98 0 L642 0 L642 100 L209 100 Z " />
<glyph glyph-name="Ecircumflex" unicode="&#xca;" horiz-adv-x="699" d="M380 850 L528 770 L569 815 L426 940 L334 940 L191 815 L232 770 L380 850 Z M209 100 L209 317 L604 317 L604 412 L209 412 L209 624 L640 624 L640 724 L98 724 L98 0 L642 0 L642 100 L209 100 Z " />
<glyph glyph-name="Edieresis" unicode="&#xcb;" horiz-adv-x="699" d="M278 787 C321 787 350 812 350 854 C350 895 321 920 278 920 C234 920 205 895 205 854 C205 812 234 787 278 787 L278 787 Z M485 787 C528 787 557 812 557 854 C557 895 528 920 485 920 C441 920 412 895 412 854 C412 812 441 787 485 787 L485 787 Z M209 100 L209 317 L604 317 L604 412 L209 412 L209 624 L640 624 L640 724 L98 724 L98 0 L642 0 L642 100 L209 100 Z " />
<glyph glyph-name="Igrave" unicode="&#xcc;" horiz-adv-x="307" d="M157 770 L219 812 L116 940 L-29 895 L157 770 Z M98 0 L209 0 L209 724 L98 724 L98 0 Z " />
<glyph glyph-name="Iacute" unicode="&#xcd;" horiz-adv-x="307" d="M126 770 L325 895 L187 940 L73 813 L126 770 Z M98 0 L209 0 L209 724 L98 724 L98 0 Z " />
<glyph glyph-name="Icircumflex" unicode="&#xce;" horiz-adv-x="307" d="M199 940 L107 940 L-36 815 L5 770 L153 850 L301 770 L342 815 L199 940 Z M98 0 L209 0 L209 724 L98 724 L98 0 Z " />
<glyph glyph-name="Idieresis" unicode="&#xcf;" horiz-adv-x="307" d="M51 787 C94 787 123 812 123 854 C123 895 94 920 51 920 C7 920 -22 895 -22 854 C-22 812 7 787 51 787 L51 787 Z M258 787 C301 787 330 812 330 854 C330 895 301 920 258 920 C214 920 185 895 185 854 C185 812 214 787 258 787 L258 787 Z M98 0 L209 0 L209 724 L98 724 L98 0 Z " />
<glyph glyph-name="Eth" unicode="&#xd0;" horiz-adv-x="812" d="M397 724 L105 724 L105 403 L27 403 L27 320 L105 320 L105 0 L397 0 C616 0 760 136 760 362 C760 588 616 724 397 724 L397 724 Z M397 102 L216 102 L216 320 L361 320 L361 403 L216 403 L216 622 L397 622 C553 622 646 527 646 362 C646 197 553 102 397 102 L397 102 Z " />
<glyph glyph-name="Ntilde" unicode="&#xd1;" horiz-adv-x="844" d="M363 839 C412 839 433 785 511 785 C574 785 619 821 642 888 L576 923 C562 889 542 870 511 870 C460 870 438 924 362 924 C305 924 258 893 233 821 L299 786 C313 820 333 839 363 839 L363 839 Z M636 724 L637 321 C637 251 640 191 642 165 C626 186 592 233 549 286 L197 724 L98 724 L98 0 L208 0 L208 413 C208 476 204 534 202 562 C216 541 245 500 279 457 L647 0 L746 0 L746 724 L636 724 Z " />
<glyph glyph-name="Ograve" unicode="&#xd2;" horiz-adv-x="855" d="M431 770 L493 812 L390 940 L245 895 L431 770 Z M427 -16 C650 -16 805 140 805 362 C805 584 650 740 427 740 C204 740 50 584 50 362 C50 140 204 -16 427 -16 L427 -16 Z M427 87 C269 87 163 202 163 362 C163 522 269 637 427 637 C585 637 691 522 691 362 C691 202 585 87 427 87 L427 87 Z " />
<glyph glyph-name="Oacute" unicode="&#xd3;" horiz-adv-x="855" d="M400 770 L599 895 L461 940 L347 813 L400 770 Z M427 -16 C650 -16 805 140 805 362 C805 584 650 740 427 740 C204 740 50 584 50 362 C50 140 204 -16 427 -16 L427 -16 Z M427 87 C269 87 163 202 163 362 C163 522 269 637 427 637 C585 637 691 522 691 362 C691 202 585 87 427 87 L427 87 Z " />
<glyph glyph-name="Ocircumflex" unicode="&#xd4;" horiz-adv-x="855" d="M427 850 L575 770 L616 815 L473 940 L381 940 L238 815 L279 770 L427 850 Z M427 740 C204 740 50 584 50 362 C50 140 204 -16 427 -16 C650 -16 805 140 805 362 C805 584 650 740 427 740 L427 740 Z M427 87 C269 87 163 202 163 362 C163 522 269 637 427 637 C585 637 691 522 691 362 C691 202 585 87 427 87 L427 87 Z " />
<glyph glyph-name="Otilde" unicode="&#xd5;" horiz-adv-x="855" d="M503 870 C452 870 430 924 354 924 C297 924 250 893 225 821 L291 786 C305 820 325 839 355 839 C404 839 425 785 503 785 C566 785 611 821 634 888 L568 923 C554 889 534 870 503 870 L503 870 Z M427 -16 C650 -16 805 140 805 362 C805 584 650 740 427 740 C204 740 50 584 50 362 C50 140 204 -16 427 -16 L427 -16 Z M427 87 C269 87 163 202 163 362 C163 522 269 637 427 637 C585 637 691 522 691 362 C691 202 585 87 427 87 L427 87 Z " />
<glyph glyph-name="Odieresis" unicode="&#xd6;" horiz-adv-x="855" d="M325 787 C368 787 397 812 397 854 C397 895 368 920 325 920 C281 920 252 895 252 854 C252 812 281 787 325 787 L325 787 Z M532 787 C575 787 604 812 604 854 C604 895 575 920 532 920 C488 920 459 895 459 854 C459 812 488 787 532 787 L532 787 Z M427 -16 C650 -16 805 140 805 362 C805 584 650 740 427 740 C204 740 50 584 50 362 C50 140 204 -16 427 -16 L427 -16 Z M427 87 C269 87 163 202 163 362 C163 522 269 637 427 637 C585 637 691 522 691 362 C691 202 585 87 427 87 L427 87 Z " />
<glyph glyph-name="multiply" unicode="&#xd7;" horiz-adv-x="539" d="M485 496 L414 567 L269 422 L125 566 L54 496 L199 351 L55 207 L125 136 L270 281 L414 136 L484 207 L340 351 L485 496 Z " />
<glyph glyph-name="Oslash" unicode="&#xd8;" horiz-adv-x="864" d="M723 615 L800 702 L726 770 L647 681 C588 719 514 740 432 740 C209 740 55 584 55 362 C55 261 87 174 142 109 L65 22 L139 -46 L218 43 C277 5 350 -16 432 -16 C655 -16 810 140 810 362 C810 463 778 549 723 615 L723 615 Z M168 362 C168 522 274 637 432 637 C487 637 535 623 575 599 L217 194 C186 239 168 297 168 362 L168 362 Z M432 87 C378 87 330 101 290 125 L648 529 C679 484 696 427 696 362 C696 202 590 87 432 87 L432 87 Z " />
<glyph glyph-name="Ugrave" unicode="&#xd9;" horiz-adv-x="816" d="M411 770 L473 812 L370 940 L225 895 L411 770 Z M408 -16 C619 -16 728 109 728 308 L728 724 L617 724 L617 309 C617 170 555 87 408 87 C260 87 199 170 199 309 L199 724 L88 724 L88 308 C88 109 197 -16 408 -16 L408 -16 Z " />
<glyph glyph-name="Uacute" unicode="&#xda;" horiz-adv-x="816" d="M380 770 L579 895 L441 940 L327 813 L380 770 Z M408 -16 C619 -16 728 109 728 308 L728 724 L617 724 L617 309 C617 170 555 87 408 87 C260 87 199 170 199 309 L199 724 L88 724 L88 308 C88 109 197 -16 408 -16 L408 -16 Z " />
<glyph glyph-name="Ucircumflex" unicode="&#xdb;" horiz-adv-x="816" d="M407 850 L555 770 L596 815 L453 940 L361 940 L218 815 L259 770 L407 850 Z M617 724 L617 309 C617 170 555 87 408 87 C260 87 199 170 199 309 L199 724 L88 724 L88 308 C88 109 197 -16 408 -16 C619 -16 728 109 728 308 L728 724 L617 724 Z " />
<glyph glyph-name="Udieresis" unicode="&#xdc;" horiz-adv-x="816" d="M305 787 C348 787 377 812 377 854 C377 895 348 920 305 920 C261 920 232 895 232 854 C232 812 261 787 305 787 L305 787 Z M512 787 C555 787 584 812 584 854 C584 895 555 920 512 920 C468 920 439 895 439 854 C439 812 468 787 512 787 L512 787 Z M408 -16 C619 -16 728 109 728 308 L728 724 L617 724 L617 309 C617 170 555 87 408 87 C260 87 199 170 199 309 L199 724 L88 724 L88 308 C88 109 197 -16 408 -16 L408 -16 Z " />
<glyph glyph-name="Yacute" unicode="&#xdd;" horiz-adv-x="765" d="M554 895 L416 940 L302 813 L355 770 L554 895 Z M747 724 L616 724 L485 522 C446 462 410 401 385 358 C360 400 323 461 284 522 L153 724 L18 724 L327 272 L327 0 L438 0 L438 272 L747 724 Z " />
<glyph glyph-name="Thorn" unicode="&#xde;" horiz-adv-x="773" d="M416 618 L209 618 L209 724 L98 724 L98 0 L209 0 L209 115 L416 115 C624 115 726 200 726 366 C726 533 624 618 416 618 L416 618 Z M409 217 L209 217 L209 516 L409 516 C549 516 612 472 612 366 C612 261 549 217 409 217 L409 217 Z " />
<glyph glyph-name="germandbls" unicode="&#xdf;" horiz-adv-x="722" d="M542 422 C594 458 632 514 632 593 C632 729 523 810 369 810 C175 810 84 684 84 521 L84 0 L194 0 L194 514 C194 625 253 706 370 706 C461 706 519 668 519 583 C519 498 460 450 351 450 L351 371 L371 371 C497 371 563 318 563 216 C563 125 510 88 442 88 C417 88 391 93 371 110 L308 19 C346 -6 392 -16 440 -16 C574 -16 676 61 676 213 C676 310 628 384 542 422 L542 422 Z " />
<glyph glyph-name="agrave" unicode="&#xe0;" horiz-adv-x="657" d="M422 693 L302 854 L189 806 L362 648 L422 693 Z M324 594 C162 594 91 512 64 408 L166 383 C185 457 231 499 318 499 C418 499 470 444 470 341 L470 307 C417 329 349 343 276 343 C114 343 42 264 42 162 C42 59 113 -16 250 -16 C340 -16 424 22 472 90 L496 0 L580 0 L580 346 C580 500 498 594 324 594 L324 594 Z M270 75 C207 75 152 100 152 168 C152 232 205 260 288 260 C355 260 414 251 470 230 C467 133 368 75 270 75 L270 75 Z " />
<glyph glyph-name="aacute" unicode="&#xe1;" horiz-adv-x="657" d="M519 805 L402 854 L286 687 L344 648 L519 805 Z M324 594 C162 594 91 512 64 408 L166 383 C185 457 231 499 318 499 C418 499 470 444 470 341 L470 307 C417 329 349 343 276 343 C114 343 42 264 42 162 C42 59 113 -16 250 -16 C340 -16 424 22 472 90 L496 0 L580 0 L580 346 C580 500 498 594 324 594 L324 594 Z M270 75 C207 75 152 100 152 168 C152 232 205 260 288 260 C355 260 414 251 470 230 C467 133 368 75 270 75 L270 75 Z " />
<glyph glyph-name="acircumflex" unicode="&#xe2;" horiz-adv-x="657" d="M332 759 L478 648 L528 689 L372 854 L291 854 L135 689 L185 648 L332 759 Z M324 594 C162 594 91 512 64 408 L166 383 C185 457 231 499 318 499 C418 499 470 444 470 341 L470 307 C417 329 349 343 276 343 C114 343 42 264 42 162 C42 59 113 -16 250 -16 C340 -16 424 22 472 90 L496 0 L580 0 L580 346 C580 500 498 594 324 594 L324 594 Z M270 75 C207 75 152 100 152 168 C152 232 205 260 288 260 C355 260 414 251 470 230 C467 133 368 75 270 75 L270 75 Z " />
<glyph glyph-name="atilde" unicode="&#xe3;" horiz-adv-x="657" d="M259 733 C308 733 329 679 407 679 C470 679 515 715 538 782 L472 817 C458 783 438 764 407 764 C356 764 334 818 258 818 C201 818 154 787 129 715 L195 680 C209 714 229 733 259 733 L259 733 Z M324 594 C162 594 91 512 64 408 L166 383 C185 457 231 499 318 499 C418 499 470 444 470 341 L470 307 C417 329 349 343 276 343 C114 343 42 264 42 162 C42 59 113 -16 250 -16 C340 -16 424 22 472 90 L496 0 L580 0 L580 346 C580 500 498 594 324 594 L324 594 Z M270 75 C207 75 152 100 152 168 C152 232 205 260 288 260 C355 260 414 251 470 230 C467 133 368 75 270 75 L270 75 Z " />
<glyph glyph-name="adieresis" unicode="&#xe4;" horiz-adv-x="657" d="M229 688 C270 688 298 712 298 752 C298 791 270 815 229 815 C187 815 159 791 159 752 C159 712 187 688 229 688 L229 688 Z M436 688 C477 688 505 712 505 752 C505 791 477 815 436 815 C394 815 366 791 366 752 C366 712 394 688 436 688 L436 688 Z M324 594 C162 594 91 512 64 408 L166 383 C185 457 231 499 318 499 C418 499 470 444 470 341 L470 307 C417 329 349 343 276 343 C114 343 42 264 42 162 C42 59 113 -16 250 -16 C340 -16 424 22 472 90 L496 0 L580 0 L580 346 C580 500 498 594 324 594 L324 594 Z M270 75 C207 75 152 100 152 168 C152 232 205 260 288 260 C355 260 414 251 470 230 C467 133 368 75 270 75 L270 75 Z " />
<glyph glyph-name="aring" unicode="&#xe5;" horiz-adv-x="657" d="M332 631 C410 631 460 681 460 752 C460 822 410 872 332 872 C253 872 203 822 203 752 C203 681 253 631 332 631 L332 631 Z M332 810 C366 810 389 786 389 752 C389 717 366 693 332 693 C297 693 274 717 274 752 C274 786 297 810 332 810 L332 810 Z M324 594 C162 594 91 512 64 408 L166 383 C185 457 231 499 318 499 C418 499 470 444 470 341 L470 307 C417 329 349 343 276 343 C114 343 42 264 42 162 C42 59 113 -16 250 -16 C340 -16 424 22 472 90 L496 0 L580 0 L580 346 C580 500 498 594 324 594 L324 594 Z M270 75 C207 75 152 100 152 168 C152 232 205 260 288 260 C355 260 414 251 470 230 C467 133 368 75 270 75 L270 75 Z " />
<glyph glyph-name="ae" unicode="&#xe6;" horiz-adv-x="1094" d="M1047 301 C1045 470 945 594 773 594 C681 594 605 555 554 493 C514 557 441 594 330 594 C163 594 88 511 61 408 L163 383 C182 456 232 499 324 499 C429 499 481 442 481 337 L481 319 C432 334 376 344 303 344 C108 344 43 266 43 164 C43 62 115 -16 261 -16 C377 -16 478 30 526 116 C573 34 656 -16 764 -16 C902 -16 1007 59 1039 175 L939 202 C917 129 852 82 765 82 C667 82 601 149 592 259 L1047 259 L1047 301 Z M768 502 C865 502 923 440 937 343 L593 343 C605 436 673 502 768 502 L768 502 Z M278 75 C206 75 153 103 153 170 C153 236 203 264 323 264 C382 264 432 258 487 242 L487 239 C484 133 379 75 278 75 L278 75 Z " />
<glyph glyph-name="ccedilla" unicode="&#xe7;" horiz-adv-x="657" d="M344 84 C226 84 158 169 158 289 C158 409 227 494 344 494 C436 494 497 444 517 358 L622 385 C590 517 488 594 341 594 C163 594 46 467 46 289 C46 132 135 14 281 -11 L251 -81 L288 -109 C297 -102 310 -98 324 -98 C354 -98 374 -111 374 -136 C374 -159 356 -174 324 -174 C294 -174 274 -161 262 -125 L187 -146 C206 -211 250 -249 328 -249 C400 -249 454 -207 454 -139 C454 -82 418 -35 343 -40 L352 -16 C492 -12 591 64 622 193 L517 220 C497 134 435 84 344 84 L344 84 Z " />
<glyph glyph-name="egrave" unicode="&#xe8;" horiz-adv-x="666" d="M436 693 L316 854 L203 806 L376 648 L436 693 Z M619 301 C617 470 517 594 340 594 C163 594 46 466 46 288 C46 109 156 -16 331 -16 C474 -16 579 59 611 175 L511 202 C489 129 424 82 332 82 C229 82 163 149 154 259 L619 259 L619 301 Z M335 502 C436 502 497 441 509 345 L155 345 C168 437 236 502 335 502 L335 502 Z " />
<glyph glyph-name="eacute" unicode="&#xe9;" horiz-adv-x="666" d="M533 805 L416 854 L300 687 L358 648 L533 805 Z M619 301 C617 470 517 594 340 594 C163 594 46 466 46 288 C46 109 156 -16 331 -16 C474 -16 579 59 611 175 L511 202 C489 129 424 82 332 82 C229 82 163 149 154 259 L619 259 L619 301 Z M335 502 C436 502 497 441 509 345 L155 345 C168 437 236 502 335 502 L335 502 Z " />
<glyph glyph-name="ecircumflex" unicode="&#xea;" horiz-adv-x="666" d="M346 759 L492 648 L542 689 L386 854 L305 854 L149 689 L199 648 L346 759 Z M619 301 C617 470 517 594 340 594 C163 594 46 466 46 288 C46 109 156 -16 331 -16 C474 -16 579 59 611 175 L511 202 C489 129 424 82 332 82 C229 82 163 149 154 259 L619 259 L619 301 Z M335 502 C436 502 497 441 509 345 L155 345 C168 437 236 502 335 502 L335 502 Z " />
<glyph glyph-name="edieresis" unicode="&#xeb;" horiz-adv-x="666" d="M243 688 C284 688 312 712 312 752 C312 791 284 815 243 815 C201 815 173 791 173 752 C173 712 201 688 243 688 L243 688 Z M450 688 C491 688 519 712 519 752 C519 791 491 815 450 815 C408 815 380 791 380 752 C380 712 408 688 450 688 L450 688 Z M619 301 C617 470 517 594 340 594 C163 594 46 466 46 288 C46 109 156 -16 331 -16 C474 -16 579 59 611 175 L511 202 C489 129 424 82 332 82 C229 82 163 149 154 259 L619 259 L619 301 Z M335 502 C436 502 497 441 509 345 L155 345 C168 437 236 502 335 502 L335 502 Z " />
<glyph glyph-name="igrave" unicode="&#xec;" horiz-adv-x="278" d="M111 854 L-2 806 L171 648 L231 693 L111 854 Z M84 0 L194 0 L194 578 L84 578 L84 0 Z " />
<glyph glyph-name="iacute" unicode="&#xed;" horiz-adv-x="278" d="M153 648 L328 805 L211 854 L95 687 L153 648 Z M84 0 L194 0 L194 578 L84 578 L84 0 Z " />
<glyph glyph-name="icircumflex" unicode="&#xee;" horiz-adv-x="278" d="M181 854 L100 854 L-56 689 L-6 648 L141 759 L287 648 L337 689 L181 854 Z M84 0 L194 0 L194 578 L84 578 L84 0 Z " />
<glyph glyph-name="idieresis" unicode="&#xef;" horiz-adv-x="278" d="M38 688 C79 688 107 712 107 752 C107 791 79 815 38 815 C-4 815 -32 791 -32 752 C-32 712 -4 688 38 688 L38 688 Z M245 688 C286 688 314 712 314 752 C314 791 286 815 245 815 C203 815 175 791 175 752 C175 712 203 688 245 688 L245 688 Z M84 0 L194 0 L194 578 L84 578 L84 0 Z " />
<glyph glyph-name="eth" unicode="&#xf0;" horiz-adv-x="694" d="M484 704 L543 739 L503 809 L409 754 C337 792 253 810 166 810 L136 733 C201 733 264 724 322 702 L262 667 L303 597 L407 658 C465 617 512 557 541 472 C494 539 421 574 343 574 C170 574 46 450 46 278 C46 107 172 -16 339 -16 C512 -16 640 102 640 330 C640 502 578 625 484 704 L484 704 Z M347 84 C233 84 158 168 158 279 C158 391 230 474 350 474 C468 474 542 401 542 279 C542 172 456 84 347 84 L347 84 Z " />
<glyph glyph-name="ntilde" unicode="&#xf1;" horiz-adv-x="701" d="M297 733 C346 733 367 679 445 679 C508 679 553 715 576 782 L510 817 C496 783 476 764 445 764 C394 764 372 818 296 818 C239 818 192 787 167 715 L233 680 C247 714 267 733 297 733 L297 733 Z M396 594 C303 594 233 558 190 495 L169 578 L84 578 L84 0 L194 0 L194 328 C194 431 264 494 365 494 C451 494 514 449 514 327 L514 0 L624 0 L624 337 C624 497 549 594 396 594 L396 594 Z " />
<glyph glyph-name="ograve" unicode="&#xf2;" horiz-adv-x="698" d="M321 854 L208 806 L381 648 L441 693 L321 854 Z M348 -16 C525 -16 652 108 652 290 C652 471 526 594 349 594 C172 594 46 470 46 288 C46 107 171 -16 348 -16 L348 -16 Z M349 84 C232 84 158 168 158 289 C158 411 232 494 349 494 C466 494 540 411 540 289 C540 168 466 84 349 84 L349 84 Z " />
<glyph glyph-name="oacute" unicode="&#xf3;" horiz-adv-x="698" d="M363 648 L538 805 L421 854 L305 687 L363 648 Z M348 -16 C525 -16 652 108 652 290 C652 471 526 594 349 594 C172 594 46 470 46 288 C46 107 171 -16 348 -16 L348 -16 Z M349 84 C232 84 158 168 158 289 C158 411 232 494 349 494 C466 494 540 411 540 289 C540 168 466 84 349 84 L349 84 Z " />
<glyph glyph-name="ocircumflex" unicode="&#xf4;" horiz-adv-x="698" d="M351 759 L497 648 L547 689 L391 854 L310 854 L154 689 L204 648 L351 759 Z M349 594 C172 594 46 470 46 288 C46 107 171 -16 348 -16 C525 -16 652 108 652 290 C652 471 526 594 349 594 L349 594 Z M349 84 C232 84 158 168 158 289 C158 411 232 494 349 494 C466 494 540 411 540 289 C540 168 466 84 349 84 L349 84 Z " />
<glyph glyph-name="otilde" unicode="&#xf5;" horiz-adv-x="698" d="M426 764 C375 764 353 818 277 818 C220 818 173 787 148 715 L214 680 C228 714 248 733 278 733 C327 733 348 679 426 679 C489 679 534 715 557 782 L491 817 C477 783 457 764 426 764 L426 764 Z M348 -16 C525 -16 652 108 652 290 C652 471 526 594 349 594 C172 594 46 470 46 288 C46 107 171 -16 348 -16 L348 -16 Z M349 84 C232 84 158 168 158 289 C158 411 232 494 349 494 C466 494 540 411 540 289 C540 168 466 84 349 84 L349 84 Z " />
<glyph glyph-name="odieresis" unicode="&#xf6;" horiz-adv-x="698" d="M248 688 C289 688 317 712 317 752 C317 791 289 815 248 815 C206 815 178 791 178 752 C178 712 206 688 248 688 L248 688 Z M455 688 C496 688 524 712 524 752 C524 791 496 815 455 815 C413 815 385 791 385 752 C385 712 413 688 455 688 L455 688 Z M348 -16 C525 -16 652 108 652 290 C652 471 526 594 349 594 C172 594 46 470 46 288 C46 107 171 -16 348 -16 L348 -16 Z M349 84 C232 84 158 168 158 289 C158 411 232 494 349 494 C466 494 540 411 540 289 C540 168 466 84 349 84 L349 84 Z " />
<glyph glyph-name="divide" unicode="&#xf7;" horiz-adv-x="549" d="M276 481 C317 481 346 506 346 548 C346 590 317 615 276 615 C235 615 206 590 206 548 C206 506 235 481 276 481 L276 481 Z M50 301 L499 301 L499 401 L50 401 L50 301 Z M273 87 C314 87 343 112 343 154 C343 196 314 221 273 221 C232 221 203 196 203 154 C203 112 232 87 273 87 L273 87 Z " />
<glyph glyph-name="oslash" unicode="&#xf8;" horiz-adv-x="708" d="M594 485 L656 552 L594 608 L533 542 C484 575 423 594 354 594 C177 594 51 470 51 288 C51 211 74 144 114 93 L51 26 L113 -30 L174 36 C223 3 284 -16 353 -16 C530 -16 657 108 657 290 C657 367 634 434 594 485 L594 485 Z M163 289 C163 411 237 494 354 494 C395 494 431 484 460 465 L190 175 C173 207 163 246 163 289 L163 289 Z M354 84 C312 84 276 95 247 114 L518 404 C535 372 545 333 545 289 C545 168 471 84 354 84 L354 84 Z " />
<glyph glyph-name="ugrave" unicode="&#xf9;" horiz-adv-x="691" d="M437 693 L317 854 L204 806 L377 648 L437 693 Z M497 578 L497 256 C497 152 425 83 325 83 C247 83 187 121 187 240 L187 578 L77 578 L77 235 C77 76 147 -16 294 -16 C387 -16 459 20 500 87 L522 0 L607 0 L607 578 L497 578 Z " />
<glyph glyph-name="uacute" unicode="&#xfa;" horiz-adv-x="691" d="M534 805 L417 854 L301 687 L359 648 L534 805 Z M497 578 L497 256 C497 152 425 83 325 83 C247 83 187 121 187 240 L187 578 L77 578 L77 235 C77 76 147 -16 294 -16 C387 -16 459 20 500 87 L522 0 L607 0 L607 578 L497 578 Z " />
<glyph glyph-name="ucircumflex" unicode="&#xfb;" horiz-adv-x="691" d="M347 759 L493 648 L543 689 L387 854 L306 854 L150 689 L200 648 L347 759 Z M497 578 L497 256 C497 152 425 83 325 83 C247 83 187 121 187 240 L187 578 L77 578 L77 235 C77 76 147 -16 294 -16 C387 -16 459 20 500 87 L522 0 L607 0 L607 578 L497 578 Z " />
<glyph glyph-name="udieresis" unicode="&#xfc;" horiz-adv-x="691" d="M244 688 C285 688 313 712 313 752 C313 791 285 815 244 815 C202 815 174 791 174 752 C174 712 202 688 244 688 L244 688 Z M451 688 C492 688 520 712 520 752 C520 791 492 815 451 815 C409 815 381 791 381 752 C381 712 409 688 451 688 L451 688 Z M497 578 L497 256 C497 152 425 83 325 83 C247 83 187 121 187 240 L187 578 L77 578 L77 235 C77 76 147 -16 294 -16 C387 -16 459 20 500 87 L522 0 L607 0 L607 578 L497 578 Z " />
<glyph glyph-name="yacute" unicode="&#xfd;" horiz-adv-x="633" d="M505 805 L388 854 L272 687 L330 648 L505 805 Z M501 578 L403 335 C366 243 337 162 320 115 C304 162 276 243 238 334 L137 578 L16 578 L267 -1 L186 -181 L294 -181 L370 0 L619 578 L501 578 Z " />
<glyph glyph-name="thorn" unicode="&#xfe;" horiz-adv-x="721" d="M403 594 C311 594 239 561 194 493 L194 800 L84 800 L84 -181 L194 -181 L194 79 C239 13 312 -16 404 -16 C553 -16 674 106 674 289 C674 471 554 594 403 594 L403 594 Z M380 86 C275 86 194 153 194 289 C194 429 278 492 381 492 C492 492 562 405 562 289 C562 173 491 86 380 86 L380 86 Z " />
<glyph glyph-name="ydieresis" unicode="&#xff;" horiz-adv-x="633" d="M215 688 C256 688 284 712 284 752 C284 791 256 815 215 815 C173 815 145 791 145 752 C145 712 173 688 215 688 L215 688 Z M422 688 C463 688 491 712 491 752 C491 791 463 815 422 815 C380 815 352 791 352 752 C352 712 380 688 422 688 L422 688 Z M501 578 L403 335 C366 243 337 162 320 115 C304 162 276 243 238 334 L137 578 L16 578 L267 -1 L186 -181 L294 -181 L370 0 L619 578 L501 578 Z " />
<glyph glyph-name="Amacron" unicode="&#x100;" horiz-adv-x="776" d="M572 902 L204 902 L204 822 L572 822 L572 902 Z M640 0 L763 0 L441 727 L336 727 L13 0 L134 0 L208 174 L566 174 L640 0 Z M248 269 L312 420 C347 504 374 574 387 609 C400 575 426 504 462 420 L526 269 L248 269 Z " />
<glyph glyph-name="amacron" unicode="&#x101;" horiz-adv-x="657" d="M516 800 L148 800 L148 720 L516 720 L516 800 Z M324 594 C162 594 91 512 64 408 L166 383 C185 457 231 499 318 499 C418 499 470 444 470 341 L470 307 C417 329 349 343 276 343 C114 343 42 264 42 162 C42 59 113 -16 250 -16 C340 -16 424 22 472 90 L496 0 L580 0 L580 346 C580 500 498 594 324 594 L324 594 Z M270 75 C207 75 152 100 152 168 C152 232 205 260 288 260 C355 260 414 251 470 230 C467 133 368 75 270 75 L270 75 Z " />
<glyph glyph-name="Abreve" unicode="&#x102;" horiz-adv-x="776" d="M389 764 C489 764 566 825 566 931 L488 940 C488 896 452 852 389 852 C327 852 290 896 290 940 L210 931 C210 825 289 764 389 764 L389 764 Z M640 0 L763 0 L441 727 L336 727 L13 0 L134 0 L208 174 L566 174 L640 0 Z M248 269 L312 420 C347 504 374 574 387 609 C400 575 426 504 462 420 L526 269 L248 269 Z " />
<glyph glyph-name="abreve" unicode="&#x103;" horiz-adv-x="657" d="M333 644 C438 644 511 716 511 845 L439 854 C439 792 405 729 333 729 C261 729 226 792 226 854 L153 845 C153 716 227 644 333 644 L333 644 Z M324 594 C162 594 91 512 64 408 L166 383 C185 457 231 499 318 499 C418 499 470 444 470 341 L470 307 C417 329 349 343 276 343 C114 343 42 264 42 162 C42 59 113 -16 250 -16 C340 -16 424 22 472 90 L496 0 L580 0 L580 346 C580 500 498 594 324 594 L324 594 Z M270 75 C207 75 152 100 152 168 C152 232 205 260 288 260 C355 260 414 251 470 230 C467 133 368 75 270 75 L270 75 Z " />
<glyph glyph-name="Aogonek" unicode="&#x104;" horiz-adv-x="776" d="M758 -125 C746 -154 727 -169 703 -169 C678 -169 663 -152 663 -124 C663 -82 696 -41 763 0 L441 727 L336 727 L13 0 L134 0 L208 174 L566 174 L640 0 L650 0 C602 -37 579 -79 579 -128 C579 -197 624 -239 696 -239 C760 -239 805 -205 824 -144 L758 -125 Z M248 269 L312 420 C347 504 374 574 387 609 C400 575 426 504 462 420 L526 269 L248 269 Z " />
<glyph glyph-name="aogonek" unicode="&#x105;" horiz-adv-x="657" d="M575 -125 C563 -154 544 -169 520 -169 C495 -169 480 -152 480 -124 C480 -82 513 -41 580 0 L580 346 C580 500 498 594 324 594 C162 594 91 512 64 408 L166 383 C185 457 231 499 318 499 C418 499 470 444 470 341 L470 307 C417 329 349 343 276 343 C114 343 42 264 42 162 C42 59 113 -16 250 -16 C340 -16 424 22 472 90 L492 17 C427 -24 396 -71 396 -128 C396 -197 441 -239 513 -239 C577 -239 622 -205 641 -144 L575 -125 Z M270 75 C207 75 152 100 152 168 C152 232 205 260 288 260 C355 260 414 251 470 230 C467 133 368 75 270 75 L270 75 Z " />
<glyph glyph-name="Cacute" unicode="&#x106;" horiz-adv-x="790" d="M400 770 L599 895 L461 940 L347 813 L400 770 Z M417 -16 C593 -16 718 78 756 222 L649 251 C622 152 539 87 419 87 C262 87 164 201 164 362 C164 523 263 637 420 637 C539 637 622 572 649 473 L756 502 C718 645 595 740 420 740 C201 740 50 584 50 362 C50 140 198 -16 417 -16 L417 -16 Z " />
<glyph glyph-name="cacute" unicode="&#x107;" horiz-adv-x="657" d="M365 648 L540 805 L423 854 L307 687 L365 648 Z M341 -16 C487 -16 590 61 622 193 L517 220 C497 134 435 84 344 84 C226 84 158 169 158 289 C158 409 227 494 344 494 C436 494 497 444 517 358 L622 385 C590 517 488 594 341 594 C163 594 46 467 46 289 C46 111 160 -16 341 -16 L341 -16 Z " />
<glyph glyph-name="Cdotaccent" unicode="&#x10a;" horiz-adv-x="790" d="M428 785 C473 785 504 812 504 856 C504 899 473 926 428 926 C382 926 351 899 351 856 C351 812 382 785 428 785 L428 785 Z M417 -16 C593 -16 718 78 756 222 L649 251 C622 152 539 87 419 87 C262 87 164 201 164 362 C164 523 263 637 420 637 C539 637 622 572 649 473 L756 502 C718 645 595 740 420 740 C201 740 50 584 50 362 C50 140 198 -16 417 -16 L417 -16 Z " />
<glyph glyph-name="cdotaccent" unicode="&#x10b;" horiz-adv-x="657" d="M353 680 C398 680 429 707 429 751 C429 794 398 821 353 821 C307 821 276 794 276 751 C276 707 307 680 353 680 L353 680 Z M341 -16 C487 -16 590 61 622 193 L517 220 C497 134 435 84 344 84 C226 84 158 169 158 289 C158 409 227 494 344 494 C436 494 497 444 517 358 L622 385 C590 517 488 594 341 594 C163 594 46 467 46 289 C46 111 160 -16 341 -16 L341 -16 Z " />
<glyph glyph-name="Ccaron" unicode="&#x10c;" horiz-adv-x="790" d="M474 770 L617 895 L576 940 L428 860 L280 940 L239 895 L382 770 L474 770 Z M419 87 C262 87 164 201 164 362 C164 523 263 637 420 637 C539 637 622 572 649 473 L756 502 C718 645 595 740 420 740 C201 740 50 584 50 362 C50 140 198 -16 417 -16 C593 -16 718 78 756 222 L649 251 C622 152 539 87 419 87 L419 87 Z " />
<glyph glyph-name="ccaron" unicode="&#x10d;" horiz-adv-x="657" d="M393 648 L549 813 L499 854 L353 743 L206 854 L156 813 L312 648 L393 648 Z M344 84 C226 84 158 169 158 289 C158 409 227 494 344 494 C436 494 497 444 517 358 L622 385 C590 517 488 594 341 594 C163 594 46 467 46 289 C46 111 160 -16 341 -16 C487 -16 590 61 622 193 L517 220 C497 134 435 84 344 84 L344 84 Z " />
<glyph glyph-name="Dcaron" unicode="&#x10e;" horiz-adv-x="805" d="M438 770 L581 895 L540 940 L392 860 L244 940 L203 895 L346 770 L438 770 Z M390 724 L98 724 L98 0 L390 0 C609 0 753 136 753 362 C753 588 609 724 390 724 L390 724 Z M390 102 L209 102 L209 622 L390 622 C546 622 639 527 639 362 C639 197 546 102 390 102 L390 102 Z " />
<glyph glyph-name="dcaron" unicode="&#x10f;" horiz-adv-x="740" d="M758 844 C721 844 690 819 690 778 C690 740 717 716 751 713 C741 674 719 649 685 624 L716 584 C777 621 826 688 826 765 C826 817 798 844 758 844 L758 844 Z M526 499 C476 572 397 594 317 594 C167 594 47 472 47 289 C47 106 164 -16 315 -16 C409 -16 483 20 528 91 L551 0 L636 0 L636 800 L526 800 L526 499 Z M337 86 C227 86 159 173 159 289 C159 405 226 492 336 492 C441 492 526 430 526 289 C526 152 443 85 337 86 L337 86 Z " />
<glyph glyph-name="Dcroat" unicode="&#x110;" horiz-adv-x="812" d="M397 724 L105 724 L105 403 L27 403 L27 320 L105 320 L105 0 L397 0 C616 0 760 136 760 362 C760 588 616 724 397 724 L397 724 Z M397 102 L216 102 L216 320 L361 320 L361 403 L216 403 L216 622 L397 622 C553 622 646 527 646 362 C646 197 553 102 397 102 L397 102 Z " />
<glyph glyph-name="dcroat" unicode="&#x111;" horiz-adv-x="720" d="M729 730 L636 730 L636 800 L526 800 L526 730 L395 730 L395 647 L526 647 L526 499 C476 572 397 594 317 594 C167 594 47 472 47 289 C47 106 164 -16 315 -16 C409 -16 483 20 528 91 L551 0 L636 0 L636 647 L729 647 L729 730 Z M337 86 C227 86 159 173 159 289 C159 405 226 492 336 492 C441 492 526 430 526 289 C526 152 443 85 337 86 L337 86 Z " />
<glyph glyph-name="Emacron" unicode="&#x112;" horiz-adv-x="699" d="M565 902 L197 902 L197 822 L565 822 L565 902 Z M209 100 L209 317 L604 317 L604 412 L209 412 L209 624 L640 624 L640 724 L98 724 L98 0 L642 0 L642 100 L209 100 Z " />
<glyph glyph-name="emacron" unicode="&#x113;" horiz-adv-x="666" d="M530 800 L162 800 L162 720 L530 720 L530 800 Z M619 301 C617 470 517 594 340 594 C163 594 46 466 46 288 C46 109 156 -16 331 -16 C474 -16 579 59 611 175 L511 202 C489 129 424 82 332 82 C229 82 163 149 154 259 L619 259 L619 301 Z M335 502 C436 502 497 441 509 345 L155 345 C168 437 236 502 335 502 L335 502 Z " />
<glyph glyph-name="Edotaccent" unicode="&#x116;" horiz-adv-x="699" d="M381 785 C426 785 457 812 457 856 C457 899 426 926 381 926 C335 926 304 899 304 856 C304 812 335 785 381 785 L381 785 Z M209 100 L209 317 L604 317 L604 412 L209 412 L209 624 L640 624 L640 724 L98 724 L98 0 L642 0 L642 100 L209 100 Z " />
<glyph glyph-name="edotaccent" unicode="&#x117;" horiz-adv-x="666" d="M346 680 C391 680 422 707 422 751 C422 794 391 821 346 821 C300 821 269 794 269 751 C269 707 300 680 346 680 L346 680 Z M619 301 C617 470 517 594 340 594 C163 594 46 466 46 288 C46 109 156 -16 331 -16 C474 -16 579 59 611 175 L511 202 C489 129 424 82 332 82 C229 82 163 149 154 259 L619 259 L619 301 Z M335 502 C436 502 497 441 509 345 L155 345 C168 437 236 502 335 502 L335 502 Z " />
<glyph glyph-name="Eogonek" unicode="&#x118;" horiz-adv-x="699" d="M637 -125 C625 -154 606 -169 582 -169 C557 -169 542 -152 542 -124 C542 -82 575 -41 642 0 L642 100 L209 100 L209 317 L604 317 L604 412 L209 412 L209 624 L640 624 L640 724 L98 724 L98 0 L529 0 C481 -37 458 -79 458 -128 C458 -197 503 -239 575 -239 C639 -239 684 -205 703 -144 L637 -125 Z " />
<glyph glyph-name="eogonek" unicode="&#x119;" horiz-adv-x="666" d="M619 301 C617 470 517 594 340 594 C163 594 46 466 46 288 C46 112 152 -12 322 -16 C294 -46 280 -80 280 -118 C280 -187 325 -229 397 -229 C461 -229 506 -195 525 -134 L459 -115 C447 -144 428 -159 404 -159 C379 -159 364 -142 364 -114 C364 -73 396 -32 461 8 C536 39 590 98 611 175 L511 202 C489 129 424 82 332 82 C229 82 163 149 154 259 L619 259 L619 301 Z M335 502 C436 502 497 441 509 345 L155 345 C168 437 236 502 335 502 L335 502 Z " />
<glyph glyph-name="Ecaron" unicode="&#x11a;" horiz-adv-x="699" d="M427 770 L570 895 L529 940 L381 860 L233 940 L192 895 L335 770 L427 770 Z M209 100 L209 317 L604 317 L604 412 L209 412 L209 624 L640 624 L640 724 L98 724 L98 0 L642 0 L642 100 L209 100 Z " />
<glyph glyph-name="ecaron" unicode="&#x11b;" horiz-adv-x="666" d="M386 648 L542 813 L492 854 L346 743 L199 854 L149 813 L305 648 L386 648 Z M619 301 C617 470 517 594 340 594 C163 594 46 466 46 288 C46 109 156 -16 331 -16 C474 -16 579 59 611 175 L511 202 C489 129 424 82 332 82 C229 82 163 149 154 259 L619 259 L619 301 Z M335 502 C436 502 497 441 509 345 L155 345 C168 437 236 502 335 502 L335 502 Z " />
<glyph glyph-name="Gbreve" unicode="&#x11e;" horiz-adv-x="819" d="M427 764 C527 764 604 825 604 931 L526 940 C526 896 490 852 427 852 C365 852 328 896 328 940 L248 931 C248 825 327 764 427 764 L427 764 Z M753 376 L407 376 L407 286 L645 286 L645 253 C645 146 549 87 412 87 C250 87 165 201 165 362 C165 523 259 637 417 637 C542 637 624 570 648 466 L753 494 C720 643 596 740 417 740 C199 740 51 584 51 362 C51 140 186 -16 396 -16 C505 -16 597 23 648 97 L674 0 L753 0 L753 376 Z " />
<glyph glyph-name="gbreve" unicode="&#x11f;" horiz-adv-x="721" d="M341 644 C446 644 519 716 519 845 L447 854 C447 792 413 729 341 729 C269 729 234 792 234 854 L161 845 C161 716 235 644 341 644 L341 644 Z M552 581 L530 493 C480 569 397 594 318 594 C164 594 48 479 48 301 C48 123 162 10 317 10 C409 10 482 45 527 112 L527 54 C527 -51 454 -103 341 -103 C261 -103 204 -78 172 -21 L73 -60 C111 -149 194 -197 343 -197 C531 -197 637 -104 637 49 L637 581 L552 581 Z M342 109 C228 109 160 189 160 301 C160 412 227 492 341 492 C446 492 527 430 527 301 C527 173 447 109 342 109 L342 109 Z " />
<glyph glyph-name="Gdotaccent" unicode="&#x120;" horiz-adv-x="819" d="M426 785 C471 785 502 812 502 856 C502 899 471 926 426 926 C380 926 349 899 349 856 C349 812 380 785 426 785 L426 785 Z M753 376 L407 376 L407 286 L645 286 L645 253 C645 146 549 87 412 87 C250 87 165 201 165 362 C165 523 259 637 417 637 C542 637 624 570 648 466 L753 494 C720 643 596 740 417 740 C199 740 51 584 51 362 C51 140 186 -16 396 -16 C505 -16 597 23 648 97 L674 0 L753 0 L753 376 Z " />
<glyph glyph-name="gdotaccent" unicode="&#x121;" horiz-adv-x="721" d="M340 680 C385 680 416 707 416 751 C416 794 385 821 340 821 C294 821 263 794 263 751 C263 707 294 680 340 680 L340 680 Z M552 581 L530 493 C480 569 397 594 318 594 C164 594 48 479 48 301 C48 123 162 10 317 10 C409 10 482 45 527 112 L527 54 C527 -51 454 -103 341 -103 C261 -103 204 -78 172 -21 L73 -60 C111 -149 194 -197 343 -197 C531 -197 637 -104 637 49 L637 581 L552 581 Z M342 109 C228 109 160 189 160 301 C160 412 227 492 341 492 C446 492 527 430 527 301 C527 173 447 109 342 109 L342 109 Z " />
<glyph glyph-name="Gcommaaccent" unicode="&#x122;" horiz-adv-x="819" d="M753 376 L407 376 L407 286 L645 286 L645 253 C645 146 549 87 412 87 C250 87 165 201 165 362 C165 523 259 637 417 637 C542 637 624 570 648 466 L753 494 C720 643 596 740 417 740 C199 740 51 584 51 362 C51 140 186 -16 396 -16 C505 -16 597 23 648 97 L674 0 L753 0 L753 376 Z M411 -51 C370 -51 341 -78 341 -118 C341 -149 358 -172 385 -180 C373 -204 350 -223 317 -240 L351 -288 C444 -245 481 -182 481 -125 C481 -79 452 -51 411 -51 L411 -51 Z " />
<glyph glyph-name="gcommaaccent" unicode="&#x123;" horiz-adv-x="721" d="M331 639 C372 639 401 666 401 706 C401 737 384 760 357 768 C369 792 392 811 425 828 L391 876 C298 833 261 770 261 713 C261 667 290 639 331 639 L331 639 Z M552 581 L530 493 C480 569 397 594 318 594 C164 594 48 479 48 301 C48 123 162 10 317 10 C409 10 482 45 527 112 L527 54 C527 -51 454 -103 341 -103 C261 -103 204 -78 172 -21 L73 -60 C111 -149 194 -197 343 -197 C531 -197 637 -104 637 49 L637 581 L552 581 Z M342 109 C228 109 160 189 160 301 C160 412 227 492 341 492 C446 492 527 430 527 301 C527 173 447 109 342 109 L342 109 Z " />
<glyph glyph-name="Hbar" unicode="&#x126;" horiz-adv-x="845" d="M804 620 L744 620 L744 724 L632 724 L632 620 L212 620 L212 724 L101 724 L101 620 L40 620 L40 531 L101 531 L101 0 L212 0 L212 322 L632 322 L632 0 L744 0 L744 531 L804 531 L804 620 Z M632 422 L212 422 L212 531 L632 531 L632 422 Z " />
<glyph glyph-name="hbar" unicode="&#x127;" horiz-adv-x="701" d="M396 594 C310 594 239 561 194 502 L194 648 L334 648 L334 731 L194 731 L194 800 L84 800 L84 731 L0 731 L0 648 L84 648 L84 0 L194 0 L194 328 C194 431 264 494 365 494 C451 494 514 449 514 328 L514 0 L624 0 L624 337 C624 497 549 594 396 594 L396 594 Z " />
<glyph glyph-name="Itilde" unicode="&#x128;" horiz-adv-x="307" d="M229 870 C178 870 156 924 80 924 C23 924 -24 893 -49 821 L17 786 C31 820 51 839 81 839 C130 839 151 785 229 785 C292 785 337 821 360 888 L294 923 C280 889 260 870 229 870 L229 870 Z M98 0 L209 0 L209 724 L98 724 L98 0 Z " />
<glyph glyph-name="itilde" unicode="&#x129;" horiz-adv-x="278" d="M205 764 C162 764 143 818 78 818 C29 818 -11 787 -32 715 L24 680 C36 714 53 733 79 733 C121 733 139 679 205 679 C259 679 298 715 317 782 L261 817 C249 783 232 764 205 764 L205 764 Z M84 0 L194 0 L194 578 L84 578 L84 0 Z " />
<glyph glyph-name="Imacron" unicode="&#x12a;" horiz-adv-x="307" d="M-30 902 L-30 822 L338 822 L338 902 L-30 902 Z M98 0 L209 0 L209 724 L98 724 L98 0 Z " />
<glyph glyph-name="imacron" unicode="&#x12b;" horiz-adv-x="278" d="M-16 800 L-16 720 L299 720 L299 800 L-16 800 Z M84 0 L194 0 L194 578 L84 578 L84 0 Z " />
<glyph glyph-name="Iogonek" unicode="&#x12e;" horiz-adv-x="307" d="M204 -125 C192 -154 173 -169 149 -169 C124 -169 109 -152 109 -124 C109 -82 142 -41 209 0 L209 724 L98 724 L98 1 C49 -36 25 -78 25 -128 C25 -197 70 -239 142 -239 C206 -239 251 -205 270 -144 L204 -125 Z " />
<glyph glyph-name="iogonek" unicode="&#x12f;" horiz-adv-x="278" d="M139 661 C184 661 215 688 215 732 C215 775 184 802 139 802 C93 802 62 775 62 732 C62 688 93 661 139 661 L139 661 Z M189 -125 C177 -154 158 -169 134 -169 C109 -169 94 -152 94 -124 C94 -82 127 -41 194 0 L194 578 L84 578 L84 2 C34 -35 10 -78 10 -128 C10 -197 55 -239 127 -239 C191 -239 236 -205 255 -144 L189 -125 Z " />
<glyph glyph-name="Idotaccent" unicode="&#x130;" horiz-adv-x="307" d="M154 785 C199 785 230 812 230 856 C230 899 199 926 154 926 C108 926 77 899 77 856 C77 812 108 785 154 785 L154 785 Z M98 0 L209 0 L209 724 L98 724 L98 0 Z " />
<glyph glyph-name="dotlessi" unicode="&#x131;" horiz-adv-x="278" d="M84 0 L194 0 L194 578 L84 578 L84 0 Z " />
<glyph glyph-name="IJ" unicode="&#x132;" horiz-adv-x="949" d="M98 0 L209 0 L209 724 L98 724 L98 0 Z M605 -13 C771 -13 859 78 859 256 L859 724 L748 724 L748 260 C748 144 701 89 604 89 C521 89 477 136 459 219 L354 194 C377 62 467 -13 605 -13 L605 -13 Z " />
<glyph glyph-name="ij" unicode="&#x133;" horiz-adv-x="590" d="M139 661 C184 661 215 688 215 732 C215 775 184 802 139 802 C93 802 62 775 62 732 C62 688 93 661 139 661 L139 661 Z M439 661 C484 661 515 688 515 732 C515 775 484 802 439 802 C393 802 362 775 362 732 C362 688 393 661 439 661 L439 661 Z M84 0 L194 0 L194 578 L84 578 L84 0 Z M306 -197 C428 -197 494 -116 494 -6 L494 578 L384 578 L384 -3 C384 -68 348 -94 287 -94 C268 -94 250 -92 230 -87 L212 -184 C242 -193 271 -197 306 -197 L306 -197 Z " />
<glyph glyph-name="Kcommaaccent" unicode="&#x136;" horiz-adv-x="753" d="M433 406 L739 724 L599 724 L308 429 C278 396 241 356 209 320 L209 724 L98 724 L98 0 L209 0 L209 178 L357 330 L615 0 L754 0 L433 406 Z M404 -51 C363 -51 334 -78 334 -118 C334 -149 351 -172 378 -180 C366 -204 343 -223 310 -240 L344 -288 C437 -245 474 -182 474 -125 C474 -79 445 -51 404 -51 L404 -51 Z " />
<glyph glyph-name="kcommaaccent" unicode="&#x137;" horiz-adv-x="620" d="M371 331 L609 578 L478 578 L321 418 C277 372 230 320 194 279 L194 800 L84 800 L84 0 L194 0 L194 154 L297 259 L486 0 L621 0 L371 331 Z M319 -51 C278 -51 249 -78 249 -118 C249 -149 266 -172 293 -180 C281 -204 258 -223 225 -240 L259 -288 C352 -245 389 -182 389 -125 C389 -79 360 -51 319 -51 L319 -51 Z " />
<glyph glyph-name="kgreenlandic" unicode="&#x138;" horiz-adv-x="620" d="M486 0 L621 0 L371 331 L609 578 L478 578 L321 418 C277 372 230 320 194 279 L194 578 L84 578 L84 0 L194 0 L194 154 L297 259 L486 0 Z " />
<glyph glyph-name="Lacute" unicode="&#x139;" horiz-adv-x="640" d="M346 895 L208 940 L94 813 L147 770 L346 895 Z M209 100 L209 724 L98 724 L98 0 L622 0 L622 100 L209 100 Z " />
<glyph glyph-name="lacute" unicode="&#x13a;" horiz-adv-x="278" d="M78 834 L296 922 L168 991 L34 885 L78 834 Z M84 0 L194 0 L194 800 L84 800 L84 0 Z " />
<glyph glyph-name="Lcommaaccent" unicode="&#x13b;" horiz-adv-x="640" d="M209 100 L209 724 L98 724 L98 0 L622 0 L622 100 L209 100 Z M372 -51 C331 -51 302 -78 302 -118 C302 -149 319 -172 346 -180 C334 -204 311 -223 278 -240 L312 -288 C405 -245 442 -182 442 -125 C442 -79 413 -51 372 -51 L372 -51 Z " />
<glyph glyph-name="lcommaaccent" unicode="&#x13c;" horiz-adv-x="278" d="M194 800 L84 800 L84 0 L194 0 L194 800 Z M150 -51 C109 -51 80 -78 80 -118 C80 -149 97 -172 124 -180 C112 -204 89 -223 56 -240 L90 -288 C183 -245 220 -182 220 -125 C220 -79 191 -51 150 -51 L150 -51 Z " />
<glyph glyph-name="Lcaron" unicode="&#x13d;" horiz-adv-x="646" d="M430 551 L461 511 C522 548 571 615 571 692 C571 744 543 771 503 771 C466 771 435 746 435 705 C435 667 462 643 496 640 C486 601 464 576 430 551 L430 551 Z M209 100 L209 724 L98 724 L98 0 L622 0 L622 100 L209 100 Z " />
<glyph glyph-name="lcaron" unicode="&#x13e;" horiz-adv-x="298" d="M303 844 C266 844 235 819 235 778 C235 740 262 716 296 713 C286 674 264 649 230 624 L261 584 C322 621 371 688 371 765 C371 817 343 844 303 844 L303 844 Z M84 0 L194 0 L194 800 L84 800 L84 0 Z " />
<glyph glyph-name="Ldot" unicode="&#x13f;" horiz-adv-x="647" d="M209 100 L209 724 L98 724 L98 0 L622 0 L622 100 L209 100 Z M463 366 C509 366 541 395 541 442 C541 489 509 517 463 517 C416 517 384 489 384 442 C384 395 416 366 463 366 L463 366 Z " />
<glyph glyph-name="ldot" unicode="&#x140;" horiz-adv-x="352" d="M84 0 L194 0 L194 800 L84 800 L84 0 Z M279 357 C322 357 352 383 352 427 C352 471 322 497 279 497 C236 497 206 471 206 427 C206 383 236 357 279 357 L279 357 Z " />
<glyph glyph-name="Lslash" unicode="&#x141;" horiz-adv-x="670" d="M239 100 L239 343 L380 424 L335 503 L239 448 L239 724 L128 724 L128 384 L16 319 L61 240 L128 279 L128 0 L652 0 L652 100 L239 100 Z " />
<glyph glyph-name="lslash" unicode="&#x142;" horiz-adv-x="385" d="M375 452 L333 524 L248 475 L248 800 L138 800 L138 412 L14 340 L56 268 L138 315 L138 0 L248 0 L248 379 L375 452 Z " />
<glyph glyph-name="Nacute" unicode="&#x143;" horiz-adv-x="844" d="M607 895 L469 940 L355 813 L408 770 L607 895 Z M636 724 L637 321 C637 251 640 191 642 165 C626 186 592 233 549 286 L197 724 L98 724 L98 0 L208 0 L208 413 C208 476 204 534 202 562 C216 541 245 500 279 457 L647 0 L746 0 L746 724 L636 724 Z " />
<glyph glyph-name="nacute" unicode="&#x144;" horiz-adv-x="701" d="M557 805 L440 854 L324 687 L382 648 L557 805 Z M396 594 C303 594 233 558 190 495 L169 578 L84 578 L84 0 L194 0 L194 328 C194 431 264 494 365 494 C451 494 514 449 514 327 L514 0 L624 0 L624 337 C624 497 549 594 396 594 L396 594 Z " />
<glyph glyph-name="Ncommaaccent" unicode="&#x145;" horiz-adv-x="844" d="M636 724 L637 321 C637 251 640 191 642 165 C626 186 592 233 549 286 L197 724 L98 724 L98 0 L208 0 L208 413 C208 476 204 534 202 562 C216 541 245 500 279 457 L647 0 L746 0 L746 724 L636 724 Z M417 -51 C376 -51 347 -78 347 -118 C347 -149 364 -172 391 -180 C379 -204 356 -223 323 -240 L357 -288 C450 -245 487 -182 487 -125 C487 -79 458 -51 417 -51 L417 -51 Z " />
<glyph glyph-name="ncommaaccent" unicode="&#x146;" horiz-adv-x="701" d="M396 594 C303 594 233 558 190 495 L169 578 L84 578 L84 0 L194 0 L194 328 C194 431 264 494 365 494 C451 494 514 449 514 327 L514 0 L624 0 L624 337 C624 497 549 594 396 594 L396 594 Z M363 -51 C322 -51 293 -78 293 -118 C293 -149 310 -172 337 -180 C325 -204 302 -223 269 -240 L303 -288 C396 -245 433 -182 433 -125 C433 -79 404 -51 363 -51 L363 -51 Z " />
<glyph glyph-name="Ncaron" unicode="&#x147;" horiz-adv-x="844" d="M482 770 L625 895 L584 940 L436 860 L288 940 L247 895 L390 770 L482 770 Z M636 724 L637 321 C637 251 640 191 642 165 C626 186 592 233 549 286 L197 724 L98 724 L98 0 L208 0 L208 413 C208 476 204 534 202 562 C216 541 245 500 279 457 L647 0 L746 0 L746 724 L636 724 Z " />
<glyph glyph-name="ncaron" unicode="&#x148;" horiz-adv-x="701" d="M410 648 L566 813 L516 854 L370 743 L223 854 L173 813 L329 648 L410 648 Z M396 594 C303 594 233 558 190 495 L169 578 L84 578 L84 0 L194 0 L194 328 C194 431 264 494 365 494 C451 494 514 449 514 327 L514 0 L624 0 L624 337 C624 497 549 594 396 594 L396 594 Z " />
<glyph glyph-name="Eng" unicode="&#x14a;" horiz-adv-x="844" d="M636 724 L637 321 C637 251 640 191 642 165 C626 186 592 233 549 286 L197 724 L98 724 L98 0 L208 0 L208 413 C208 476 204 534 202 562 C216 541 245 500 279 457 L636 14 L636 -13 C636 -85 600 -105 547 -105 C524 -105 500 -103 480 -98 L464 -184 C493 -192 533 -197 568 -197 C690 -197 746 -127 746 -6 L746 724 L636 724 Z " />
<glyph glyph-name="eng" unicode="&#x14b;" horiz-adv-x="701" d="M396 594 C303 594 233 558 190 495 L169 578 L84 578 L84 0 L194 0 L194 328 C194 431 264 494 365 494 C451 494 514 449 514 327 L514 -3 C514 -68 478 -95 417 -95 C398 -95 380 -93 360 -88 L342 -184 C372 -193 401 -197 436 -197 C558 -197 624 -116 624 -6 L624 337 C624 497 549 594 396 594 L396 594 Z " />
<glyph glyph-name="Omacron" unicode="&#x14c;" horiz-adv-x="855" d="M244 902 L244 822 L612 822 L612 902 L244 902 Z M427 -16 C650 -16 805 140 805 362 C805 584 650 740 427 740 C204 740 50 584 50 362 C50 140 204 -16 427 -16 L427 -16 Z M427 87 C269 87 163 202 163 362 C163 522 269 637 427 637 C585 637 691 522 691 362 C691 202 585 87 427 87 L427 87 Z " />
<glyph glyph-name="omacron" unicode="&#x14d;" horiz-adv-x="698" d="M167 800 L167 720 L535 720 L535 800 L167 800 Z M348 -16 C525 -16 652 108 652 290 C652 471 526 594 349 594 C172 594 46 470 46 288 C46 107 171 -16 348 -16 L348 -16 Z M349 84 C232 84 158 168 158 289 C158 411 232 494 349 494 C466 494 540 411 540 289 C540 168 466 84 349 84 L349 84 Z " />
<glyph glyph-name="Ohungarumlaut" unicode="&#x150;" horiz-adv-x="855" d="M304 770 L478 895 L347 940 L248 809 L304 770 Z M524 770 L698 895 L567 940 L468 809 L524 770 Z M427 -16 C650 -16 805 140 805 362 C805 584 650 740 427 740 C204 740 50 584 50 362 C50 140 204 -16 427 -16 L427 -16 Z M427 87 C269 87 163 202 163 362 C163 522 269 637 427 637 C585 637 691 522 691 362 C691 202 585 87 427 87 L427 87 Z " />
<glyph glyph-name="ohungarumlaut" unicode="&#x151;" horiz-adv-x="698" d="M251 648 L426 805 L310 854 L193 687 L251 648 Z M461 648 L636 805 L520 854 L403 687 L461 648 Z M348 -16 C525 -16 652 108 652 290 C652 471 526 594 349 594 C172 594 46 470 46 288 C46 107 171 -16 348 -16 L348 -16 Z M349 84 C232 84 158 168 158 289 C158 411 232 494 349 494 C466 494 540 411 540 289 C540 168 466 84 349 84 L349 84 Z " />
<glyph glyph-name="OE" unicode="&#x152;" horiz-adv-x="1295" d="M805 100 L805 317 L1200 317 L1200 412 L805 412 L805 624 L1236 624 L1236 724 L694 724 L694 640 C628 703 535 740 427 740 C204 740 50 584 50 362 C50 140 204 -16 427 -16 C535 -16 628 21 694 84 L694 0 L1238 0 L1238 100 L805 100 Z M427 87 C269 87 163 202 163 362 C163 522 269 637 427 637 C585 637 691 522 691 362 C691 202 585 87 427 87 L427 87 Z " />
<glyph glyph-name="oe" unicode="&#x153;" horiz-adv-x="1163" d="M1116 301 C1114 470 1014 594 837 594 C732 594 648 549 597 475 C544 549 456 594 349 594 C172 594 46 470 46 288 C46 107 171 -16 348 -16 C453 -16 541 28 594 101 C643 28 724 -16 828 -16 C971 -16 1076 59 1108 175 L1008 202 C986 129 921 82 829 82 C726 82 660 149 651 259 L1116 259 L1116 301 Z M832 502 C933 502 991 441 1006 345 L652 345 C665 437 733 502 832 502 L832 502 Z M349 84 C232 84 158 168 158 289 C158 411 232 494 349 494 C466 494 540 411 540 289 C540 168 466 84 349 84 L349 84 Z " />
<glyph glyph-name="Racute" unicode="&#x154;" horiz-adv-x="780" d="M550 895 L412 940 L298 813 L351 770 L550 895 Z M595 0 L731 0 L538 256 C662 283 723 360 723 484 C723 643 623 724 418 724 L98 724 L98 0 L209 0 L209 244 L416 244 L595 0 Z M209 622 L415 622 C544 622 610 582 610 484 C610 386 544 346 415 346 L209 346 L209 622 Z " />
<glyph glyph-name="racute" unicode="&#x155;" horiz-adv-x="449" d="M459 805 L342 854 L226 687 L284 648 L459 805 Z M192 487 L169 578 L84 578 L84 0 L194 0 L194 316 C194 421 270 492 357 492 C381 492 406 490 429 484 L443 587 C423 592 401 594 380 594 C298 594 231 555 192 487 L192 487 Z " />
<glyph glyph-name="Rcommaaccent" unicode="&#x156;" horiz-adv-x="780" d="M538 256 C662 283 723 360 723 484 C723 643 623 724 418 724 L98 724 L98 0 L209 0 L209 244 L416 244 L595 0 L731 0 L538 256 Z M209 622 L415 622 C544 622 610 582 610 484 C610 386 544 346 415 346 L209 346 L209 622 Z M388 -51 C347 -51 318 -78 318 -118 C318 -149 335 -172 362 -180 C350 -204 327 -223 294 -240 L328 -288 C421 -245 458 -182 458 -125 C458 -79 429 -51 388 -51 L388 -51 Z " />
<glyph glyph-name="rcommaaccent" unicode="&#x157;" horiz-adv-x="449" d="M380 594 C298 594 231 555 192 487 L169 578 L84 578 L84 0 L194 0 L194 316 C194 421 270 492 357 492 C381 492 406 490 429 484 L443 587 C423 592 401 594 380 594 L380 594 Z M142 -51 C101 -51 72 -78 72 -118 C72 -149 89 -172 116 -180 C104 -204 81 -223 48 -240 L82 -288 C175 -245 212 -182 212 -125 C212 -79 183 -51 142 -51 L142 -51 Z " />
<glyph glyph-name="Rcaron" unicode="&#x158;" horiz-adv-x="780" d="M425 770 L568 895 L527 940 L379 860 L231 940 L190 895 L333 770 L425 770 Z M595 0 L731 0 L538 256 C662 283 723 360 723 484 C723 643 623 724 418 724 L98 724 L98 0 L209 0 L209 244 L416 244 L595 0 Z M209 622 L415 622 C544 622 610 582 610 484 C610 386 544 346 415 346 L209 346 L209 622 Z " />
<glyph glyph-name="rcaron" unicode="&#x159;" horiz-adv-x="449" d="M312 648 L468 813 L418 854 L272 743 L125 854 L75 813 L231 648 L312 648 Z M192 487 L169 578 L84 578 L84 0 L194 0 L194 316 C194 421 270 492 357 492 C381 492 406 490 429 484 L443 587 C423 592 401 594 380 594 C298 594 231 555 192 487 L192 487 Z " />
<glyph glyph-name="Sacute" unicode="&#x15a;" horiz-adv-x="706" d="M330 770 L529 895 L391 940 L277 813 L330 770 Z M365 -16 C544 -16 660 61 660 197 C660 505 181 336 181 534 C181 602 238 641 339 641 C449 641 514 597 535 504 L644 532 C618 667 512 740 344 740 C174 740 68 663 68 529 C68 219 547 403 547 193 C547 123 488 83 373 83 C242 83 170 129 143 223 L33 195 C72 48 197 -16 365 -16 L365 -16 Z " />
<glyph glyph-name="sacute" unicode="&#x15b;" horiz-adv-x="607" d="M328 648 L503 805 L386 854 L270 687 L328 648 Z M306 -16 C471 -16 562 52 562 167 C562 421 168 279 168 429 C168 477 216 502 289 502 C378 502 436 468 452 396 L555 419 C535 523 448 594 296 594 C152 594 61 527 61 418 C61 171 455 317 455 159 C455 103 402 76 314 76 C215 76 156 108 135 179 L32 157 C60 43 152 -16 306 -16 L306 -16 Z " />
<glyph glyph-name="Scedilla" unicode="&#x15e;" horiz-adv-x="706" d="M660 197 C660 505 181 336 181 534 C181 602 238 641 339 641 C449 641 514 597 535 504 L644 532 C618 667 512 740 344 740 C174 740 68 663 68 529 C68 219 547 403 547 193 C547 123 488 83 373 83 C242 83 170 129 143 223 L33 195 C67 66 168 1 306 -13 L277 -81 L314 -109 C323 -102 336 -98 350 -98 C380 -98 400 -111 400 -136 C400 -159 382 -174 350 -174 C320 -174 300 -161 288 -125 L213 -146 C232 -211 276 -249 354 -249 C426 -249 480 -207 480 -139 C480 -82 444 -35 369 -40 L378 -16 C550 -12 660 64 660 197 L660 197 Z " />
<glyph glyph-name="scedilla" unicode="&#x15f;" horiz-adv-x="607" d="M562 167 C562 421 168 279 168 429 C168 477 216 502 289 502 C378 502 436 468 452 396 L555 419 C535 523 448 594 296 594 C152 594 61 527 61 418 C61 171 455 317 455 159 C455 103 402 76 314 76 C215 76 156 108 135 179 L32 157 C57 55 133 -3 260 -14 L231 -81 L268 -109 C277 -102 290 -98 304 -98 C334 -98 354 -111 354 -136 C354 -159 336 -174 304 -174 C274 -174 254 -161 242 -125 L167 -146 C186 -211 230 -249 308 -249 C380 -249 434 -207 434 -139 C434 -82 398 -35 323 -40 L332 -15 C481 -8 562 58 562 167 L562 167 Z " />
<glyph glyph-name="Scaron" unicode="&#x160;" horiz-adv-x="706" d="M404 770 L547 895 L506 940 L358 860 L210 940 L169 895 L312 770 L404 770 Z M181 534 C181 602 238 641 339 641 C449 641 514 597 535 504 L644 532 C618 667 512 740 344 740 C174 740 68 663 68 529 C68 219 547 403 547 193 C547 123 488 83 373 83 C242 83 170 129 143 223 L33 195 C72 48 197 -16 365 -16 C544 -16 660 61 660 197 C660 505 181 336 181 534 L181 534 Z " />
<glyph glyph-name="scaron" unicode="&#x161;" horiz-adv-x="607" d="M356 648 L512 813 L462 854 L316 743 L169 854 L119 813 L275 648 L356 648 Z M168 429 C168 477 216 502 289 502 C378 502 436 468 452 396 L555 419 C535 523 448 594 296 594 C152 594 61 527 61 418 C61 171 455 317 455 159 C455 103 402 76 314 76 C215 76 156 108 135 179 L32 157 C60 43 152 -16 306 -16 C471 -16 562 52 562 167 C562 421 168 279 168 429 L168 429 Z " />
<glyph glyph-name="uni0162" unicode="&#x162;" horiz-adv-x="691" d="M401 0 L401 624 L673 624 L673 724 L18 724 L18 624 L290 624 L290 0 L303 0 L268 -81 L305 -109 C314 -102 327 -98 341 -98 C371 -98 391 -111 391 -136 C391 -159 373 -174 341 -174 C311 -174 291 -161 279 -125 L204 -146 C223 -211 267 -249 345 -249 C417 -249 471 -207 471 -139 C471 -82 435 -35 360 -40 L375 0 L401 0 Z " />
<glyph glyph-name="uni0163" unicode="&#x163;" horiz-adv-x="507" d="M505 120 L414 151 C398 108 364 82 317 82 C259 82 226 122 226 192 L226 482 L460 482 L460 578 L226 578 L226 700 L146 700 L122 578 L20 578 L20 482 L116 482 L116 192 C116 80 162 11 250 -9 L219 -81 L256 -109 C265 -102 278 -98 292 -98 C322 -98 342 -111 342 -136 C342 -159 324 -174 292 -174 C262 -174 242 -161 230 -125 L155 -146 C174 -211 218 -249 296 -249 C368 -249 422 -207 422 -139 C422 -82 386 -35 311 -40 L320 -16 C415 -13 481 35 505 120 L505 120 Z " />
<glyph glyph-name="Tcaron" unicode="&#x164;" horiz-adv-x="691" d="M392 770 L535 895 L494 940 L346 860 L198 940 L157 895 L300 770 L392 770 Z M673 724 L18 724 L18 624 L290 624 L290 0 L401 0 L401 624 L673 624 L673 724 Z " />
<glyph glyph-name="tcaron" unicode="&#x165;" horiz-adv-x="507" d="M338 674 L369 634 C430 671 479 738 479 815 C479 867 451 894 411 894 C374 894 343 869 343 828 C343 790 370 766 404 763 C394 724 372 699 338 674 L338 674 Z M414 151 C398 108 364 82 317 82 C259 82 226 122 226 192 L226 482 L460 482 L460 578 L226 578 L226 700 L146 700 L122 578 L20 578 L20 482 L116 482 L116 192 C116 56 184 -16 311 -16 C411 -16 480 32 505 120 L414 151 Z " />
<glyph glyph-name="Tbar" unicode="&#x166;" horiz-adv-x="695" d="M675 624 L675 724 L20 724 L20 624 L292 624 L292 403 L174 403 L174 320 L292 320 L292 0 L403 0 L403 320 L522 320 L522 403 L403 403 L403 624 L675 624 Z " />
<glyph glyph-name="tbar" unicode="&#x167;" horiz-adv-x="513" d="M420 151 C404 108 370 82 323 82 C265 82 232 122 232 192 L232 279 L370 279 L370 362 L232 362 L232 482 L466 482 L466 578 L232 578 L232 700 L152 700 L128 578 L26 578 L26 482 L122 482 L122 362 L36 362 L36 279 L122 279 L122 192 C122 56 190 -16 317 -16 C417 -16 486 32 511 120 L420 151 Z " />
<glyph glyph-name="Utilde" unicode="&#x168;" horiz-adv-x="816" d="M483 870 C432 870 410 924 334 924 C277 924 230 893 205 821 L271 786 C285 820 305 839 335 839 C384 839 405 785 483 785 C546 785 591 821 614 888 L548 923 C534 889 514 870 483 870 L483 870 Z M408 -16 C619 -16 728 109 728 308 L728 724 L617 724 L617 309 C617 170 555 87 408 87 C260 87 199 170 199 309 L199 724 L88 724 L88 308 C88 109 197 -16 408 -16 L408 -16 Z " />
<glyph glyph-name="utilde" unicode="&#x169;" horiz-adv-x="691" d="M274 733 C323 733 344 679 422 679 C485 679 530 715 553 782 L487 817 C473 783 453 764 422 764 C371 764 349 818 273 818 C216 818 169 787 144 715 L210 680 C224 714 244 733 274 733 L274 733 Z M497 578 L497 256 C497 152 425 83 325 83 C247 83 187 121 187 240 L187 578 L77 578 L77 235 C77 76 147 -16 294 -16 C387 -16 459 20 500 87 L522 0 L607 0 L607 578 L497 578 Z " />
<glyph glyph-name="Umacron" unicode="&#x16a;" horiz-adv-x="816" d="M224 902 L224 822 L592 822 L592 902 L224 902 Z M408 -16 C619 -16 728 109 728 308 L728 724 L617 724 L617 309 C617 170 555 87 408 87 C260 87 199 170 199 309 L199 724 L88 724 L88 308 C88 109 197 -16 408 -16 L408 -16 Z " />
<glyph glyph-name="umacron" unicode="&#x16b;" horiz-adv-x="691" d="M531 800 L163 800 L163 720 L531 720 L531 800 Z M497 578 L497 256 C497 152 425 83 325 83 C247 83 187 121 187 240 L187 578 L77 578 L77 235 C77 76 147 -16 294 -16 C387 -16 459 20 500 87 L522 0 L607 0 L607 578 L497 578 Z " />
<glyph glyph-name="Uring" unicode="&#x16e;" horiz-adv-x="816" d="M408 699 C486 699 536 749 536 820 C536 890 486 940 408 940 C329 940 279 890 279 820 C279 749 329 699 408 699 L408 699 Z M408 762 C373 762 351 785 351 820 C351 854 373 877 408 877 C442 877 464 854 464 820 C464 785 442 762 408 762 L408 762 Z M408 -16 C619 -16 728 109 728 308 L728 724 L617 724 L617 309 C617 170 555 87 408 87 C260 87 199 170 199 309 L199 724 L88 724 L88 308 C88 109 197 -16 408 -16 L408 -16 Z " />
<glyph glyph-name="uring" unicode="&#x16f;" horiz-adv-x="691" d="M347 631 C425 631 475 681 475 752 C475 822 425 872 347 872 C268 872 218 822 218 752 C218 681 268 631 347 631 L347 631 Z M347 810 C381 810 404 786 404 752 C404 717 381 693 347 693 C312 693 289 717 289 752 C289 786 312 810 347 810 L347 810 Z M497 578 L497 256 C497 152 425 83 325 83 C247 83 187 121 187 240 L187 578 L77 578 L77 235 C77 76 147 -16 294 -16 C387 -16 459 20 500 87 L522 0 L607 0 L607 578 L497 578 Z " />
<glyph glyph-name="Uhungarumlaut" unicode="&#x170;" horiz-adv-x="816" d="M284 770 L458 895 L327 940 L228 809 L284 770 Z M504 770 L678 895 L547 940 L448 809 L504 770 Z M408 -16 C619 -16 728 109 728 308 L728 724 L617 724 L617 309 C617 170 555 87 408 87 C260 87 199 170 199 309 L199 724 L88 724 L88 308 C88 109 197 -16 408 -16 L408 -16 Z " />
<glyph glyph-name="uhungarumlaut" unicode="&#x171;" horiz-adv-x="691" d="M422 805 L306 854 L189 687 L247 648 L422 805 Z M457 648 L632 805 L516 854 L399 687 L457 648 Z M497 256 C497 152 425 83 325 83 C247 83 187 121 187 240 L187 578 L77 578 L77 235 C77 76 147 -16 294 -16 C387 -16 459 20 500 87 L522 0 L607 0 L607 578 L497 578 L497 256 Z " />
<glyph glyph-name="Uogonek" unicode="&#x172;" horiz-adv-x="816" d="M617 724 L617 309 C617 170 555 87 408 87 C260 87 199 170 199 309 L199 724 L88 724 L88 308 C88 109 197 -16 408 -16 L413 -16 C385 -46 371 -80 371 -118 C371 -187 416 -229 488 -229 C552 -229 597 -195 616 -134 L550 -115 C538 -144 519 -159 495 -159 C470 -159 455 -142 455 -114 C455 -72 488 -32 554 9 C669 55 728 162 728 308 L728 724 L617 724 Z " />
<glyph glyph-name="uogonek" unicode="&#x173;" horiz-adv-x="691" d="M602 -125 C590 -154 571 -169 547 -169 C522 -169 507 -152 507 -124 C507 -82 540 -41 607 0 L607 578 L497 578 L497 256 C497 152 425 83 325 83 C247 83 187 121 187 240 L187 578 L77 578 L77 235 C77 76 147 -16 294 -16 C387 -16 459 20 500 87 L518 16 C454 -24 423 -71 423 -128 C423 -197 468 -239 540 -239 C604 -239 649 -205 668 -144 L602 -125 Z " />
<glyph glyph-name="Wcircumflex" unicode="&#x174;" horiz-adv-x="1157" d="M578 850 L726 770 L767 815 L624 940 L532 940 L389 815 L430 770 L578 850 Z M1024 724 L904 373 C869 272 839 178 824 128 C809 178 782 273 750 373 L637 724 L519 724 L407 372 C376 274 349 179 334 127 C319 178 289 274 256 373 L137 724 L16 724 L277 0 L392 0 L508 345 C539 438 564 523 577 568 C591 524 617 438 648 345 L767 0 L880 0 L1142 724 L1024 724 Z " />
<glyph glyph-name="wcircumflex" unicode="&#x175;" horiz-adv-x="952" d="M476 759 L622 648 L672 689 L516 854 L435 854 L279 689 L329 648 L476 759 Z M819 578 L738 340 C710 259 687 182 674 136 C661 182 639 259 612 340 L532 578 L421 578 L341 340 C314 257 291 178 279 133 C266 178 242 257 214 340 L133 578 L16 578 L225 0 L328 0 L413 247 C440 328 462 402 474 443 C486 402 509 328 537 247 L623 0 L727 0 L936 578 L819 578 Z " />
<glyph glyph-name="Ycircumflex" unicode="&#x176;" horiz-adv-x="765" d="M382 850 L530 770 L571 815 L428 940 L336 940 L193 815 L234 770 L382 850 Z M747 724 L616 724 L485 522 C446 462 410 401 385 358 C360 400 323 461 284 522 L153 724 L18 724 L327 272 L327 0 L438 0 L438 272 L747 724 Z " />
<glyph glyph-name="ycircumflex" unicode="&#x177;" horiz-adv-x="633" d="M318 759 L464 648 L514 689 L358 854 L277 854 L121 689 L171 648 L318 759 Z M501 578 L403 335 C366 243 337 162 320 115 C304 162 276 243 238 334 L137 578 L16 578 L267 -1 L186 -181 L294 -181 L370 0 L619 578 L501 578 Z " />
<glyph glyph-name="Ydieresis" unicode="&#x178;" horiz-adv-x="765" d="M280 787 C323 787 352 812 352 854 C352 895 323 920 280 920 C236 920 207 895 207 854 C207 812 236 787 280 787 L280 787 Z M487 787 C530 787 559 812 559 854 C559 895 530 920 487 920 C443 920 414 895 414 854 C414 812 443 787 487 787 L487 787 Z M747 724 L616 724 L485 522 C446 462 410 401 385 358 C360 400 323 461 284 522 L153 724 L18 724 L327 272 L327 0 L438 0 L438 272 L747 724 Z " />
<glyph glyph-name="Zacute" unicode="&#x179;" horiz-adv-x="708" d="M523 895 L385 940 L271 813 L324 770 L523 895 Z M347 106 C277 106 218 103 188 100 C208 120 248 162 290 212 L654 644 L654 724 L53 724 L53 624 L347 624 C413 624 475 627 507 629 C486 607 446 565 406 517 L41 85 L41 5 L667 5 L667 106 L347 106 Z " />
<glyph glyph-name="zacute" unicode="&#x17a;" horiz-adv-x="598" d="M480 805 L363 854 L247 687 L305 648 L480 805 Z M361 96 C292 96 227 94 184 92 C214 124 259 173 308 228 L546 497 L546 578 L53 578 L53 482 L216 482 C289 482 359 484 406 487 C373 452 326 401 279 349 L39 81 L39 0 L557 0 L557 96 L361 96 Z " />
<glyph glyph-name="Zdotaccent" unicode="&#x17b;" horiz-adv-x="708" d="M352 785 C397 785 428 812 428 856 C428 899 397 926 352 926 C306 926 275 899 275 856 C275 812 306 785 352 785 L352 785 Z M347 106 C277 106 218 103 188 100 C208 120 248 162 290 212 L654 644 L654 724 L53 724 L53 624 L347 624 C413 624 475 627 507 629 C486 607 446 565 406 517 L41 85 L41 5 L667 5 L667 106 L347 106 Z " />
<glyph glyph-name="zdotaccent" unicode="&#x17c;" horiz-adv-x="598" d="M293 680 C338 680 369 707 369 751 C369 794 338 821 293 821 C247 821 216 794 216 751 C216 707 247 680 293 680 L293 680 Z M361 96 C292 96 227 94 184 92 C214 124 259 173 308 228 L546 497 L546 578 L53 578 L53 482 L216 482 C289 482 359 484 406 487 C373 452 326 401 279 349 L39 81 L39 0 L557 0 L557 96 L361 96 Z " />
<glyph glyph-name="Zcaron" unicode="&#x17d;" horiz-adv-x="708" d="M398 770 L541 895 L500 940 L352 860 L204 940 L163 895 L306 770 L398 770 Z M347 106 C277 106 218 103 188 100 C208 120 248 162 290 212 L654 644 L654 724 L53 724 L53 624 L347 624 C413 624 475 627 507 629 C486 607 446 565 406 517 L41 85 L41 5 L667 5 L667 106 L347 106 Z " />
<glyph glyph-name="zcaron" unicode="&#x17e;" horiz-adv-x="598" d="M333 648 L489 813 L439 854 L293 743 L146 854 L96 813 L252 648 L333 648 Z M361 96 C292 96 227 94 184 92 C214 124 259 173 308 228 L546 497 L546 578 L53 578 L53 482 L216 482 C289 482 359 484 406 487 C373 452 326 401 279 349 L39 81 L39 0 L557 0 L557 96 L361 96 Z " />
<glyph glyph-name="florin" unicode="&#x192;" horiz-adv-x="595" d="M443 639 C476 639 517 634 549 621 L582 711 C548 726 501 734 451 734 C292 734 195 643 183 511 L180 472 L61 472 L52 376 L171 376 L141 32 C134 -45 92 -76 16 -76 L7 -171 C150 -171 241 -96 251 32 L280 376 L519 376 L528 472 L288 472 L291 508 C298 586 347 639 443 639 L443 639 Z " />
<glyph glyph-name="uni01EA" unicode="&#x1ea;" horiz-adv-x="855" d="M574 10 C715 63 805 193 805 362 C805 584 650 740 427 740 C204 740 50 584 50 362 C50 140 204 -16 427 -16 L433 -16 C405 -46 391 -80 391 -118 C391 -187 436 -229 508 -229 C572 -229 617 -195 636 -134 L570 -115 C558 -144 539 -159 515 -159 C490 -159 475 -142 475 -114 C475 -72 508 -31 574 10 L574 10 Z M163 362 C163 522 269 637 427 637 C585 637 691 522 691 362 C691 202 585 87 427 87 C269 87 163 202 163 362 L163 362 Z " />
<glyph glyph-name="uni01EB" unicode="&#x1eb;" horiz-adv-x="698" d="M478 10 C584 55 652 157 652 290 C652 471 526 594 349 594 C172 594 46 470 46 288 C46 111 166 -11 337 -16 C309 -46 295 -80 295 -118 C295 -187 340 -229 412 -229 C476 -229 521 -195 540 -134 L474 -115 C462 -144 443 -159 419 -159 C394 -159 379 -142 379 -114 C379 -72 412 -31 478 10 L478 10 Z M158 289 C158 411 232 494 349 494 C466 494 540 411 540 289 C540 168 466 84 349 84 C232 84 158 168 158 289 L158 289 Z " />
<glyph glyph-name="AEacute" unicode="&#x1fc;" horiz-adv-x="1160" d="M853 895 L715 940 L601 813 L654 770 L853 895 Z M680 100 L680 317 L1065 317 L1065 412 L680 412 L680 624 L1101 624 L1101 724 L365 724 L5 0 L126 0 L211 174 L569 174 L569 0 L1103 0 L1103 100 L680 100 Z M258 269 L431 624 L569 624 L569 269 L258 269 Z " />
<glyph glyph-name="aeacute" unicode="&#x1fd;" horiz-adv-x="1094" d="M744 805 L627 854 L511 687 L569 648 L744 805 Z M1047 301 C1045 470 945 594 773 594 C681 594 605 555 554 493 C514 557 441 594 330 594 C163 594 88 511 61 408 L163 383 C182 456 232 499 324 499 C429 499 481 442 481 337 L481 319 C432 334 376 344 303 344 C108 344 43 266 43 164 C43 62 115 -16 261 -16 C377 -16 478 30 526 116 C573 34 656 -16 764 -16 C902 -16 1007 59 1039 175 L939 202 C917 129 852 82 765 82 C667 82 601 149 592 259 L1047 259 L1047 301 Z M768 502 C865 502 923 440 937 343 L593 343 C605 436 673 502 768 502 L768 502 Z M278 75 C206 75 153 103 153 170 C153 236 203 264 323 264 C382 264 432 258 487 242 L487 239 C484 133 379 75 278 75 L278 75 Z " />
<glyph glyph-name="Oslashacute" unicode="&#x1fe;" horiz-adv-x="864" d="M604 895 L466 940 L352 813 L405 770 L604 895 Z M723 615 L800 702 L726 770 L647 681 C588 719 514 740 432 740 C209 740 55 584 55 362 C55 261 87 174 142 109 L65 22 L139 -46 L218 43 C277 5 350 -16 432 -16 C655 -16 810 140 810 362 C810 463 778 549 723 615 L723 615 Z M168 362 C168 522 274 637 432 637 C487 637 535 623 575 599 L217 194 C186 239 168 297 168 362 L168 362 Z M432 87 C378 87 330 101 290 125 L648 529 C679 484 696 427 696 362 C696 202 590 87 432 87 L432 87 Z " />
<glyph glyph-name="oslashacute" unicode="&#x1ff;" horiz-adv-x="708" d="M543 805 L426 854 L310 687 L368 648 L543 805 Z M594 485 L656 552 L594 608 L533 542 C484 575 423 594 354 594 C177 594 51 470 51 288 C51 211 74 144 114 93 L51 26 L113 -30 L174 36 C223 3 284 -16 353 -16 C530 -16 657 108 657 290 C657 367 634 434 594 485 L594 485 Z M163 289 C163 411 237 494 354 494 C395 494 431 484 460 465 L190 175 C173 207 163 246 163 289 L163 289 Z M354 84 C312 84 276 95 247 114 L518 404 C535 372 545 333 545 289 C545 168 471 84 354 84 L354 84 Z " />
<glyph glyph-name="Scommaaccent" unicode="&#x218;" horiz-adv-x="706" d="M181 534 C181 602 238 641 339 641 C449 641 514 597 535 504 L644 532 C618 667 512 740 344 740 C174 740 68 663 68 529 C68 219 547 403 547 193 C547 123 488 83 373 83 C242 83 170 129 143 223 L33 195 C72 48 197 -16 365 -16 C544 -16 660 61 660 197 C660 505 181 336 181 534 L181 534 Z M364 -51 C323 -51 294 -78 294 -118 C294 -149 311 -172 338 -180 C326 -204 303 -223 270 -240 L304 -288 C397 -245 434 -182 434 -125 C434 -79 405 -51 364 -51 L364 -51 Z " />
<glyph glyph-name="scommaaccent" unicode="&#x219;" horiz-adv-x="607" d="M168 429 C168 477 216 502 289 502 C378 502 436 468 452 396 L555 419 C535 523 448 594 296 594 C152 594 61 527 61 418 C61 171 455 317 455 159 C455 103 402 76 314 76 C215 76 156 108 135 179 L32 157 C60 43 152 -16 306 -16 C471 -16 562 52 562 167 C562 421 168 279 168 429 L168 429 Z M318 -51 C277 -51 248 -78 248 -118 C248 -149 265 -172 292 -180 C280 -204 257 -223 224 -240 L258 -288 C351 -245 388 -182 388 -125 C388 -79 359 -51 318 -51 L318 -51 Z " />
<glyph glyph-name="uni021A" unicode="&#x21a;" horiz-adv-x="691" d="M673 724 L18 724 L18 624 L290 624 L290 0 L401 0 L401 624 L673 624 L673 724 Z M355 -51 C314 -51 285 -78 285 -118 C285 -149 302 -172 329 -180 C317 -204 294 -223 261 -240 L295 -288 C388 -245 425 -182 425 -125 C425 -79 396 -51 355 -51 L355 -51 Z " />
<glyph glyph-name="uni021B" unicode="&#x21b;" horiz-adv-x="507" d="M414 151 C398 108 364 82 317 82 C259 82 226 122 226 192 L226 482 L460 482 L460 578 L226 578 L226 700 L146 700 L122 578 L20 578 L20 482 L116 482 L116 192 C116 56 184 -16 311 -16 C411 -16 480 32 505 120 L414 151 Z M306 -51 C265 -51 236 -78 236 -118 C236 -149 253 -172 280 -180 C268 -204 245 -223 212 -240 L246 -288 C339 -245 376 -182 376 -125 C376 -79 347 -51 306 -51 L306 -51 Z " />
<glyph glyph-name="uni0237" unicode="&#x237;" horiz-adv-x="306" d="M32 -197 C154 -197 210 -127 210 -6 L210 578 L100 578 L100 -3 C100 -75 64 -95 11 -95 C-12 -95 -34 -93 -54 -88 L-72 -184 C-43 -192 -3 -197 32 -197 L32 -197 Z " />
<glyph glyph-name="circumflex" unicode="&#x2c6;" horiz-adv-x="600" d="M453 689 L297 854 L216 854 L60 689 L110 648 L257 759 L403 648 L453 689 Z " />
<glyph glyph-name="caron" unicode="&#x2c7;" horiz-adv-x="600" d="M403 854 L257 743 L110 854 L60 813 L216 648 L297 648 L453 813 L403 854 Z " />
<glyph glyph-name="breve" unicode="&#x2d8;" horiz-adv-x="600" d="M346 854 C346 792 312 729 240 729 C168 729 133 792 133 854 L60 845 C60 716 134 644 240 644 C345 644 418 716 418 845 L346 854 Z " />
<glyph glyph-name="dotaccent" unicode="&#x2d9;" horiz-adv-x="600" d="M137 680 C182 680 213 707 213 751 C213 794 182 821 137 821 C91 821 60 794 60 751 C60 707 91 680 137 680 L137 680 Z " />
<glyph glyph-name="ring" unicode="&#x2da;" horiz-adv-x="600" d="M191 631 C269 631 319 681 319 752 C319 822 269 872 191 872 C112 872 62 822 62 752 C62 681 112 631 191 631 L191 631 Z M191 693 C156 693 133 717 133 752 C133 786 156 810 191 810 C225 810 248 786 248 752 C248 717 225 693 191 693 L191 693 Z " />
<glyph glyph-name="ogonek" unicode="&#x2db;" horiz-adv-x="600" d="M293 -144 L227 -125 C215 -154 196 -169 172 -169 C147 -169 132 -152 132 -124 C132 -82 165 -41 232 0 L182 38 C91 -7 48 -61 48 -128 C48 -197 93 -239 165 -239 C229 -239 274 -205 293 -144 L293 -144 Z " />
<glyph glyph-name="tilde" unicode="&#x2dc;" horiz-adv-x="600" d="M340 764 C289 764 267 818 191 818 C134 818 87 787 62 715 L128 680 C142 714 162 733 192 733 C241 733 262 679 340 679 C403 679 448 715 471 782 L405 817 C391 783 371 764 340 764 L340 764 Z " />
<glyph glyph-name="hungarumlaut" unicode="&#x2dd;" horiz-adv-x="600" d="M118 648 L293 805 L177 854 L60 687 L118 648 Z M328 648 L503 805 L387 854 L270 687 L328 648 Z " />
<glyph glyph-name="gravecomb" unicode="&#x300;" d="M-181 854 L-294 806 L-121 648 L-61 693 L-181 854 Z " />
<glyph glyph-name="acutecomb" unicode="&#x301;" d="M-235 648 L-60 805 L-177 854 L-293 687 L-235 648 Z " />
<glyph glyph-name="uni0302" unicode="&#x302;" d="M-60 689 L-216 854 L-297 854 L-453 689 L-403 648 L-256 759 L-110 648 L-60 689 Z " />
<glyph glyph-name="tildecomb" unicode="&#x303;" d="M-190 764 C-241 764 -263 818 -339 818 C-396 818 -443 787 -468 715 L-402 680 C-388 714 -368 733 -338 733 C-289 733 -268 679 -190 679 C-127 679 -82 715 -59 782 L-125 817 C-139 783 -159 764 -190 764 L-190 764 Z " />
<glyph glyph-name="uni0304" unicode="&#x304;" d="M-428 800 L-428 720 L-60 720 L-60 800 L-428 800 Z " />
<glyph glyph-name="uni0306" unicode="&#x306;" d="M-132 854 C-132 792 -166 729 -238 729 C-310 729 -345 792 -345 854 L-418 845 C-418 716 -344 644 -238 644 C-133 644 -60 716 -60 845 L-132 854 Z " />
<glyph glyph-name="uni0307" unicode="&#x307;" d="M-136 680 C-91 680 -60 707 -60 751 C-60 794 -91 821 -136 821 C-182 821 -213 794 -213 751 C-213 707 -182 680 -136 680 L-136 680 Z " />
<glyph glyph-name="uni0308" unicode="&#x308;" d="M-336 688 C-295 688 -267 712 -267 752 C-267 791 -295 815 -336 815 C-378 815 -406 791 -406 752 C-406 712 -378 688 -336 688 L-336 688 Z M-129 688 C-88 688 -60 712 -60 752 C-60 791 -88 815 -129 815 C-171 815 -199 791 -199 752 C-199 712 -171 688 -129 688 L-129 688 Z " />
<glyph glyph-name="uni030A" unicode="&#x30a;" d="M-190 631 C-112 631 -62 681 -62 752 C-62 822 -112 872 -190 872 C-269 872 -319 822 -319 752 C-319 681 -269 631 -190 631 L-190 631 Z M-190 693 C-225 693 -248 717 -248 752 C-248 786 -225 810 -190 810 C-156 810 -133 786 -133 752 C-133 717 -156 693 -190 693 L-190 693 Z " />
<glyph glyph-name="uni030B" unicode="&#x30b;" d="M-445 648 L-270 805 L-386 854 L-503 687 L-445 648 Z M-235 648 L-60 805 L-176 854 L-293 687 L-235 648 Z " />
<glyph glyph-name="uni030C" unicode="&#x30c;" d="M-110 854 L-256 743 L-403 854 L-453 813 L-297 648 L-216 648 L-60 813 L-110 854 Z " />
<glyph glyph-name="uni0326" unicode="&#x326;" d="M-130 -51 C-171 -51 -200 -78 -200 -118 C-200 -149 -183 -172 -156 -180 C-168 -204 -191 -223 -224 -240 L-190 -288 C-97 -245 -60 -182 -60 -125 C-60 -79 -89 -51 -130 -51 L-130 -51 Z " />
<glyph glyph-name="uni0327" unicode="&#x327;" d="M-171 -40 L-145 29 L-216 29 L-263 -81 L-226 -109 C-217 -102 -204 -98 -190 -98 C-160 -98 -140 -111 -140 -136 C-140 -159 -158 -174 -190 -174 C-220 -174 -240 -161 -252 -125 L-327 -146 C-308 -211 -264 -249 -186 -249 C-114 -249 -60 -207 -60 -139 C-60 -82 -96 -35 -171 -40 L-171 -40 Z " />
<glyph glyph-name="uni0328" unicode="&#x328;" d="M-60 -144 L-126 -125 C-138 -154 -157 -169 -181 -169 C-206 -169 -221 -152 -221 -124 C-221 -82 -188 -41 -121 0 L-171 38 C-262 -7 -305 -61 -305 -128 C-305 -197 -260 -239 -188 -239 C-124 -239 -79 -205 -60 -144 L-60 -144 Z " />
<glyph glyph-name="uni0335" unicode="&#x335;" d="M-394 731 L-394 648 L-60 648 L-60 731 L-394 731 Z " />
<glyph glyph-name="uni0337" unicode="&#x337;" d="M-421 350 L-379 278 L-60 462 L-102 534 L-421 350 Z " />
<glyph glyph-name="uni0338" unicode="&#x338;" d="M-665 26 L-603 -30 L-60 552 L-122 608 L-665 26 Z " />
<glyph glyph-name="Wgrave" unicode="&#x1e80;" horiz-adv-x="1157" d="M644 812 L541 940 L396 895 L582 770 L644 812 Z M1024 724 L904 373 C869 272 839 178 824 128 C809 178 782 273 750 373 L637 724 L519 724 L407 372 C376 274 349 179 334 127 C319 178 289 274 256 373 L137 724 L16 724 L277 0 L392 0 L508 345 C539 438 564 523 577 568 C591 524 617 438 648 345 L767 0 L880 0 L1142 724 L1024 724 Z " />
<glyph glyph-name="wgrave" unicode="&#x1e81;" horiz-adv-x="952" d="M566 693 L446 854 L333 806 L506 648 L566 693 Z M819 578 L738 340 C710 259 687 182 674 136 C661 182 639 259 612 340 L532 578 L421 578 L341 340 C314 257 291 178 279 133 C266 178 242 257 214 340 L133 578 L16 578 L225 0 L328 0 L413 247 C440 328 462 402 474 443 C486 402 509 328 537 247 L623 0 L727 0 L936 578 L819 578 Z " />
<glyph glyph-name="Wacute" unicode="&#x1e82;" horiz-adv-x="1157" d="M750 895 L612 940 L498 813 L551 770 L750 895 Z M1024 724 L904 373 C869 272 839 178 824 128 C809 178 782 273 750 373 L637 724 L519 724 L407 372 C376 274 349 179 334 127 C319 178 289 274 256 373 L137 724 L16 724 L277 0 L392 0 L508 345 C539 438 564 523 577 568 C591 524 617 438 648 345 L767 0 L880 0 L1142 724 L1024 724 Z " />
<glyph glyph-name="wacute" unicode="&#x1e83;" horiz-adv-x="952" d="M663 805 L546 854 L430 687 L488 648 L663 805 Z M819 578 L738 340 C710 259 687 182 674 136 C661 182 639 259 612 340 L532 578 L421 578 L341 340 C314 257 291 178 279 133 C266 178 242 257 214 340 L133 578 L16 578 L225 0 L328 0 L413 247 C440 328 462 402 474 443 C486 402 509 328 537 247 L623 0 L727 0 L936 578 L819 578 Z " />
<glyph glyph-name="Wdieresis" unicode="&#x1e84;" horiz-adv-x="1157" d="M476 787 C519 787 548 812 548 854 C548 895 519 920 476 920 C432 920 403 895 403 854 C403 812 432 787 476 787 L476 787 Z M683 787 C726 787 755 812 755 854 C755 895 726 920 683 920 C639 920 610 895 610 854 C610 812 639 787 683 787 L683 787 Z M1024 724 L904 373 C869 272 839 178 824 128 C809 178 782 273 750 373 L637 724 L519 724 L407 372 C376 274 349 179 334 127 C319 178 289 274 256 373 L137 724 L16 724 L277 0 L392 0 L508 345 C539 438 564 523 577 568 C591 524 617 438 648 345 L767 0 L880 0 L1142 724 L1024 724 Z " />
<glyph glyph-name="wdieresis" unicode="&#x1e85;" horiz-adv-x="952" d="M373 688 C414 688 442 712 442 752 C442 791 414 815 373 815 C331 815 303 791 303 752 C303 712 331 688 373 688 L373 688 Z M580 688 C621 688 649 712 649 752 C649 791 621 815 580 815 C538 815 510 791 510 752 C510 712 538 688 580 688 L580 688 Z M819 578 L738 340 C710 259 687 182 674 136 C661 182 639 259 612 340 L532 578 L421 578 L341 340 C314 257 291 178 279 133 C266 178 242 257 214 340 L133 578 L16 578 L225 0 L328 0 L413 247 C440 328 462 402 474 443 C486 402 509 328 537 247 L623 0 L727 0 L936 578 L819 578 Z " />
<glyph glyph-name="Ygrave" unicode="&#x1ef2;" horiz-adv-x="765" d="M448 812 L345 940 L200 895 L386 770 L448 812 Z M747 724 L616 724 L485 522 C446 462 410 401 385 358 C360 400 323 461 284 522 L153 724 L18 724 L327 272 L327 0 L438 0 L438 272 L747 724 Z " />
<glyph glyph-name="ygrave" unicode="&#x1ef3;" horiz-adv-x="633" d="M408 693 L288 854 L175 806 L348 648 L408 693 Z M501 578 L403 335 C366 243 337 162 320 115 C304 162 276 243 238 334 L137 578 L16 578 L267 -1 L186 -181 L294 -181 L370 0 L619 578 L501 578 Z " />
<glyph glyph-name="uni1EF8" unicode="&#x1ef8;" horiz-adv-x="765" d="M310 839 C359 839 380 785 458 785 C521 785 566 821 589 888 L523 923 C509 889 489 870 458 870 C407 870 385 924 309 924 C252 924 205 893 180 821 L246 786 C260 820 280 839 310 839 L310 839 Z M747 724 L616 724 L485 522 C446 462 410 401 385 358 C360 400 323 461 284 522 L153 724 L18 724 L327 272 L327 0 L438 0 L438 272 L747 724 Z " />
<glyph glyph-name="uni1EF9" unicode="&#x1ef9;" horiz-adv-x="633" d="M245 733 C294 733 315 679 393 679 C456 679 501 715 524 782 L458 817 C444 783 424 764 393 764 C342 764 320 818 244 818 C187 818 140 787 115 715 L181 680 C195 714 215 733 245 733 L245 733 Z M501 578 L403 335 C366 243 337 162 320 115 C304 162 276 243 238 334 L137 578 L16 578 L267 -1 L186 -181 L294 -181 L370 0 L619 578 L501 578 Z " />
<glyph glyph-name="endash" unicode="&#x2013;" horiz-adv-x="691" d="M71 253 L620 253 L620 354 L71 354 L71 253 Z " />
<glyph glyph-name="emdash" unicode="&#x2014;" horiz-adv-x="1031" d="M71 253 L959 253 L959 354 L71 354 L71 253 Z " />
<glyph glyph-name="quoteleft" unicode="&#x2018;" horiz-adv-x="240" d="M130 711 C142 743 165 768 194 790 L158 833 C94 796 45 734 45 659 C45 603 73 578 115 578 C153 578 185 603 185 645 C185 681 162 705 130 711 L130 711 Z " />
<glyph glyph-name="quoteright" unicode="&#x2019;" horiz-adv-x="236" d="M127 833 C89 833 57 808 57 766 C57 730 80 706 112 700 C100 668 77 643 48 621 L84 578 C148 615 197 677 197 752 C197 808 169 833 127 833 L127 833 Z " />
<glyph glyph-name="quotesinglbase" unicode="&#x201a;" horiz-adv-x="250" d="M125 118 C87 118 55 93 55 51 C55 15 78 -9 110 -15 C98 -47 75 -72 46 -94 L82 -137 C146 -100 195 -38 195 37 C195 93 167 118 125 118 L125 118 Z " />
<glyph glyph-name="quotedblleft" unicode="&#x201c;" horiz-adv-x="432" d="M194 790 L158 833 C94 796 45 734 45 659 C45 603 73 578 115 578 C153 578 185 603 185 645 C185 681 162 705 130 711 C142 743 165 768 194 790 L194 790 Z M322 711 C334 743 357 768 386 790 L350 833 C286 796 237 734 237 659 C237 603 265 578 307 578 C345 578 377 603 377 645 C377 681 354 705 322 711 L322 711 Z " />
<glyph glyph-name="quotedblright" unicode="&#x201d;" horiz-adv-x="428" d="M127 833 C89 833 57 808 57 766 C57 730 80 706 112 700 C100 668 77 643 48 621 L84 578 C148 615 197 677 197 752 C197 808 169 833 127 833 L127 833 Z M319 833 C281 833 249 808 249 766 C249 730 272 706 304 700 C292 668 269 643 240 621 L276 578 C340 615 389 677 389 752 C389 808 361 833 319 833 L319 833 Z " />
<glyph glyph-name="quotedblbase" unicode="&#x201e;" horiz-adv-x="442" d="M125 118 C87 118 55 93 55 51 C55 15 78 -9 110 -15 C98 -47 75 -72 46 -94 L82 -137 C146 -100 195 -38 195 37 C195 93 167 118 125 118 L125 118 Z M317 118 C279 118 247 93 247 51 C247 15 270 -9 302 -15 C290 -47 267 -72 238 -94 L274 -137 C338 -100 387 -38 387 37 C387 93 359 118 317 118 L317 118 Z " />
<glyph glyph-name="dagger" unicode="&#x2020;" horiz-adv-x="480" d="M412 669 L289 669 L289 800 L191 800 L191 669 L68 669 L68 571 L191 571 L191 253 L289 253 L289 571 L412 571 L412 669 Z " />
<glyph glyph-name="daggerdbl" unicode="&#x2021;" horiz-adv-x="480" d="M412 571 L412 669 L289 669 L289 800 L191 800 L191 669 L68 669 L68 571 L191 571 L191 482 L68 482 L68 384 L191 384 L191 253 L289 253 L289 384 L412 384 L412 482 L289 482 L289 571 L412 571 Z " />
<glyph glyph-name="bullet" unicode="&#x2022;" horiz-adv-x="402" d="M141 311 C211 311 260 354 260 425 C260 497 211 539 141 539 C71 539 22 497 22 425 C22 354 71 311 141 311 L141 311 Z " />
<glyph glyph-name="ellipsis" unicode="&#x2026;" horiz-adv-x="708" d="M124 -16 C165 -16 194 9 194 51 C194 93 165 118 124 118 C83 118 54 93 54 51 C54 9 83 -16 124 -16 L124 -16 Z M354 -16 C395 -16 424 9 424 51 C424 93 395 118 354 118 C313 118 284 93 284 51 C284 9 313 -16 354 -16 L354 -16 Z M584 -16 C625 -16 654 9 654 51 C654 93 625 118 584 118 C543 118 514 93 514 51 C514 9 543 -16 584 -16 L584 -16 Z " />
<glyph glyph-name="perthousand" unicode="&#x2030;" horiz-adv-x="1079" d="M369 545 C369 655 310 734 202 734 C93 734 35 655 35 545 C35 437 92 358 202 358 C312 358 369 437 369 545 L369 545 Z M612 724 L116 0 L215 0 L711 724 L612 724 Z M121 545 C121 606 145 651 202 651 C258 651 283 607 283 545 C283 486 259 441 202 441 C144 441 121 486 121 545 L121 545 Z M884 376 C826 376 782 351 755 310 C727 351 684 376 626 376 C522 376 464 297 464 188 C464 79 521 0 626 0 C684 0 728 24 755 65 C782 24 826 0 884 0 C989 0 1046 79 1046 187 C1046 297 987 376 884 376 L884 376 Z M631 83 C573 83 550 128 550 187 C550 248 574 293 631 293 C687 293 712 249 712 188 C712 128 688 83 631 83 L631 83 Z M879 83 C821 83 798 128 798 187 C798 248 822 293 879 293 C935 293 960 249 960 188 C960 128 936 83 879 83 L879 83 Z " />
<glyph glyph-name="guilsinglleft" unicode="&#x2039;" horiz-adv-x="342" d="M171 81 L284 81 L154 291 L284 501 L171 501 L41 291 L171 81 Z " />
<glyph glyph-name="guilsinglright" unicode="&#x203a;" horiz-adv-x="342" d="M171 81 L301 291 L171 501 L58 501 L188 291 L58 81 L171 81 Z " />
<glyph glyph-name="fraction" unicode="&#x2044;" horiz-adv-x="552" d="M-20 0 L79 0 L575 724 L476 724 L-20 0 Z " />
<glyph glyph-name="uni2074" unicode="&#x2074;" horiz-adv-x="464" d="M413 557 L361 557 L361 687 L275 687 L275 557 L159 557 L266 774 L173 774 L46 516 L46 475 L275 475 L275 392 L361 392 L361 475 L413 475 L413 557 Z " />
<glyph glyph-name="Euro" unicode="&#x20ac;" horiz-adv-x="798" d="M457 87 C362 87 295 135 262 219 L433 219 L442 317 L240 317 C239 331 238 346 238 362 C238 378 239 393 240 407 L451 407 L461 505 L262 505 C296 589 363 637 458 637 C546 637 616 582 646 495 L754 524 C712 655 601 740 457 740 C301 740 187 652 143 505 L63 505 L53 407 L126 407 C125 392 124 377 124 362 C124 347 125 332 126 317 L44 317 L35 219 L143 219 C186 72 299 -16 455 -16 C599 -16 711 68 754 200 L646 229 C616 142 546 87 457 87 L457 87 Z " />
<glyph glyph-name="trademark" unicode="&#x2122;" horiz-adv-x="1004" d="M401 724 L34 724 L34 634 L170 634 L170 362 L265 362 L265 634 L401 634 L401 724 Z M844 724 L753 597 L697 520 C685 539 665 568 645 597 L559 724 L470 724 L470 362 L566 362 L565 542 L565 564 C577 547 594 523 611 498 L676 403 L714 403 L788 498 C808 523 826 548 838 566 L838 542 L837 362 L923 362 L923 724 L844 724 Z " />
<glyph glyph-name="minus" unicode="&#x2212;" horiz-adv-x="597" d="M74 301 L523 301 L523 401 L74 401 L74 301 Z " />
<glyph glyph-name="uniF8FF" unicode="&#xf8ff;" horiz-adv-x="1170" d="M300 573 C300 559 291 551 278 551 L170 551 L170 697 C170 711 179 722 195 722 C210 722 220 711 220 697 L220 595 L278 595 C291 595 300 586 300 573 L300 573 Z M316 636 C316 685 356 722 409 722 C462 722 501 687 501 636 C501 585 462 548 409 548 C356 548 316 586 316 636 L316 636 Z M617 600 C617 624 535 606 535 668 C535 700 559 722 605 722 C635 722 665 712 665 688 C665 677 657 669 645 669 C630 669 619 680 600 680 C588 680 584 676 584 670 C584 650 666 667 666 602 C666 569 638 548 595 548 C555 548 529 561 529 583 C529 595 537 603 551 603 C567 603 573 591 597 591 C611 591 617 594 617 600 L617 600 Z M449 636 C449 660 433 677 409 677 C384 677 367 660 367 636 C367 613 384 594 409 594 C433 594 449 611 449 636 L449 636 Z M505 285 L424 370 L424 307 C424 293 413 281 398 281 C383 281 373 293 373 307 L373 453 L405 453 L486 368 L486 431 C486 445 496 456 511 456 C526 456 537 445 537 431 L537 285 L505 285 Z M1038 334 C1038 357 956 339 956 402 C956 435 980 456 1027 456 C1058 456 1087 445 1087 421 C1087 410 1079 402 1067 402 C1052 402 1040 413 1022 413 C1010 413 1006 409 1006 404 C1006 383 1088 400 1088 335 C1088 302 1060 281 1016 281 C978 281 951 294 951 316 C951 328 958 337 973 337 C988 337 994 324 1018 324 C1032 324 1038 327 1038 334 L1038 334 Z M312 281 C300 281 291 286 287 296 L282 309 L212 309 L207 296 C203 286 194 281 182 281 C164 281 152 298 161 317 L227 453 L267 453 L332 317 C340 298 330 281 312 281 L312 281 Z M751 369 C751 318 715 285 660 285 L585 285 L585 453 L660 453 C715 453 751 420 751 369 L751 369 Z M912 369 C912 357 904 349 890 349 L842 349 L842 326 L900 326 C913 326 921 318 921 305 C921 293 913 285 900 285 L791 285 L791 453 L900 453 C913 453 921 444 921 432 C921 420 913 410 900 410 L842 410 L842 390 L890 390 C904 390 912 380 912 369 L912 369 Z M700 368 C700 392 685 408 659 408 L636 408 L636 328 L659 328 C685 328 700 345 700 368 L700 368 Z M268 343 L247 394 L226 343 L268 343 Z M209 22 L209 126 L173 126 C159 126 151 137 151 148 C151 160 159 170 173 170 L295 170 C309 170 319 161 319 148 C319 136 309 126 295 126 L260 126 L260 22 C260 7 248 -3 234 -3 C220 -3 209 7 209 22 L209 22 Z M506 169 L443 69 L443 22 C443 7 432 -3 418 -3 C404 -3 392 7 392 22 L392 69 L330 169 L388 169 L419 110 L449 169 L506 169 Z M606 42 L583 42 L583 22 C583 7 573 -3 559 -3 C544 -3 532 7 532 22 L532 169 L606 169 C650 169 675 141 675 106 C675 70 650 42 606 42 L606 42 Z M831 85 C831 73 823 65 809 65 L761 65 L761 43 L819 43 C833 43 841 34 841 21 C841 9 833 0 819 0 L710 0 L710 169 L819 169 C833 169 841 160 841 148 C841 136 833 126 819 126 L761 126 L761 106 L809 106 C823 106 831 96 831 85 L831 85 Z M602 84 C619 84 627 92 627 106 C627 118 619 128 602 128 L583 128 L583 84 L602 84 Z " />
</font>
</svg>
